img image001 image001 image001 image001 image001 image001 image001 image001 image001 image001 image001 image001 image001 image001 image001

Planets Sun Sun Sun
Статистика раздачи
Автор: Nickolas3434 | Размер: 1.88 ГБ | Добавлен: 23 фев 2016
Раздают: 91    Качают: 11
Скачать торрент
Скачать торрент
Описание торрента

СообщениеДобавлено: 23 фев 2016 


Информация о фильме
Название: Укрощение огня
Год выхода: 1972
Жанр: Драма, биография
Режиссер: Даниил Храбровицкий
В ролях: Кирилл Лавров, Ада Роговцева, Игорь Горбачёв, Андрей Попов, Игорь Владимиров, Иннокентий Смоктуновский, Всеволод Сафонов, Зиновий Гердт, Светлана Коркошко, Игорь Петровский, Юрий Леонидов (I), Пётр Шелохонов, Андро Кобаладзе, Галикс (Георгий) Колчицкий, Вера Кузнецова, Евгений Матвеев, Вадим Спиридонов, Евгений Стеблов, Валентина Хмара, Володя Деянов, Борис Беляков, Георгий Шевцов, Галина Самохина, Иван Рыжов, Николай Бармин, Александр Лукьянов, Владлен Паулус
О фильме:
Фильм рассказывает о зарождении, становлении и развитии советского ракетостроения — от первых пятилеток до создания сверхдальних современных ракет. В фокусе внимания создателей ленты - судьба Андрея Башкирцева, главного конструктора, отдавшего жизнь осуществлению великой мечты — освоению космоса.
Страна: СССР
Продолжительность: 02:37:08
Перевод: не требуется
Файл
Кодек: x264
Качество: DVDRip-AVC
Видео: MPEG-4 AVC, 1515 Кбит/с, 720x440@1024х440
Звук: AC3, 2 ch, 192 Кбит/с

raw [info]: 720x440p 64:45 @ 25/1 fps (cfr)
x264 [info]: using SAR=64/45
x264 [info]: using cpu capabilities: MMX2 SSE2Fast SSSE3 SSE4.2 AVX
x264 [info]: profile High, level 4.1
x264 [info]: frame I:41 Avg QP:14.78 size: 56325
x264 [info]: frame P:543 Avg QP:18.61 size: 16705
x264 [info]: frame B:1923 Avg QP:20.64 size: 3514
=================================================================================================================
Общее
Уникальный идентификатор : 214425413826615870452340576478289176807 (0xA150D520DBC490CE8A481D6C5E97A8E7)
Полное имя : D:Укрощение огня_1978-DVDRip-AVC.mkv
Формат : Matroska
Версия формата : Version 2
Размер файла : 1,88 Гбайт
Продолжительность : 2 ч. 37 м.
Общий поток : 1709 Кбит/сек
Дата кодирования : UTC 2016-02-22 17:39:17
Программа кодирования : mkvmerge v5.8.0 ('No Sleep / Pillow') built on Sep 2 2012 15:37:04
Библиотека кодирования : libebml v1.2.3 + libmatroska v1.3.0
Видео
Идентификатор : 1
Формат : AVC
Формат/Информация : Advanced Video Codec
Профиль формата : High@L4.1
Параметр CABAC формата : Да
Параметр ReFrames формата : 15 кадров
Идентификатор кодека : V_MPEG4/ISO/AVC
Продолжительность : 2 ч. 37 м.
Битрейт : 1515 Кбит/сек
Ширина : 720 пикселей
Высота : 440 пикселей
Соотношение сторон : 2,35:1
Режим частоты кадров : Постоянный
Частота кадров : 25,000 кадров/сек
Цветовое пространство : YUV
Субдискретизация насыщенности : 4:2:0
Битовая глубина : 8 бит
Тип развёртки : Прогрессивная
Бит/(Пиксели*Кадры) : 0.191
Размер потока : 1,63 Гбайт (87%)
Библиотека кодирования : x264 core 148 r2638 7599210
Настройки программы : cabac=1 / ref=15 / deblock=1:-2:-2 / analyse=0x3:0x133 / me=umh / subme=10 / psy=1 / psy_rd=1.05:0.12 / mixed_ref=1 / me_range=32 / chroma_me=1 / trellis=2 / 8x8dct=1 / cqm=0 / deadzone=21,11 / fast_pskip=0 / chroma_qp_offset=-3 / threads=12 / lookahead_threads=2 / sliced_threads=0 / nr=0 / decimate=0 / interlaced=0 / bluray_compat=0 / constrained_intra=0 / bframes=9 / b_pyramid=2 / b_adapt=2 / b_bias=0 / direct=3 / weightb=1 / open_gop=0 / weightp=2 / keyint=250 / keyint_min=25 / scenecut=40 / intra_refresh=0 / rc=2pass / mbtree=0 / bitrate=1515 / ratetol=1.0 / qcomp=0.63 / qpmin=0 / qpmax=39 / qpstep=4 / cplxblur=20.0 / qblur=0.5 / ip_ratio=1.40 / pb_ratio=1.30 / aq=2:1.00
Язык : English
Default : Да
Forced : Нет
Основные цвета : BT.601 PAL
Характеристики трансфера : BT.470 System B, BT.470 System G
Коэффициенты матрицы : BT.601
Аудио
Идентификатор : 2
Формат : AC-3
Формат/Информация : Audio Coding 3
Расширение режима : CM (complete main)
Параметр Endianness формата : Big
Идентификатор кодека : A_AC3
Продолжительность : 2 ч. 37 м.
Вид битрейта : Постоянный
Битрейт : 192 Кбит/сек
Каналы : 2 канала
Расположение каналов : Front: L R
Частота : 48,0 КГц
Битовая глубина : 16 бит
Метод сжатия : С потерями
Размер потока : 216 Мбайт (11%)
Язык : Russian
Default : Да
Forced : Нет
Меню
00:00:00.000 : ru:Госкомиссия.
00:11:56.400 : ru:Возвращение к истокам.
00:16:21.760 : ru:Начало.
00:27:06.000 : ru:Первая советская ракета.
00:31:41.400 : ru:Циолковский. Продолжение испытаний.
00:37:50.400 : ru:Ответственное поручение. "Катюша".
00:51:39.000 : ru:"Фау-2".
00:57:56.400 : ru:Совещание у Сталина. Бомба.
01:05:57.000 : ru:Смерть матери.
01:10:41.400 : ru:Конструкторское бюро. Гениальная идея.
01:24:58.320 : ru:Первый пуск.
01:32:21.800 : ru:Разговор в столовой.
01:37:05.000 : ru:Гость из Москвы.
01:41:19.400 : ru:Рабочие будни.
01:49:44.600 : ru:Первый спутник.
01:54:21.800 : ru:Сын.
01:59:35.600 : ru:Сугубо личный вопрос.
02:02:43.720 : ru:Серьезный разговор.
02:05:26.000 : ru:1 мая. Американская провокация.
02:11:00.800 : ru:Юрий Гагарин. Перед стартом.
02:15:38.600 : ru:Первый космонавт.
02:19:19.400 : ru:"Поехали !!!"
02:24:48.200 : ru:Наташа.
02:29:05.000 : ru:"Ты мне нужна..."
02:32:58.080

Релиз от:
Автор релиза:



   Похожие торренты   Торрент   Размер 
В этой теме нет новых непрочитанных сообщений. Укрощение огня (1972) DVDRip-AVC

541 | 22

2.92 ГБ

В этой теме нет новых непрочитанных сообщений. Укрощение огня (1972) DVDRip-AVC от Youtracker

505 | 7

1.45 ГБ

В этой теме нет новых непрочитанных сообщений. Укрощение огня (1972) DVDRip от Youtracker

615 | 9

1.46 ГБ

В этой теме нет новых непрочитанных сообщений. Батальоны просят огня [01-04 из 04] (1985) DVDRip-AVC от ExKinoRay

153 | 52

5.87 ГБ

В этой теме нет новых непрочитанных сообщений. Текумзе / Tecumseh (1972) DVDRip от ExKinoRay

42 | 6

1.37 ГБ

В этой теме нет новых непрочитанных сообщений. Горячий снег (1972) DVDRip от ExKinoRay

164 | 17

1.47 ГБ

В этой теме нет новых непрочитанных сообщений. Тропой бескорыстной любви (1972) DVDRip от ExKinoRay

472 | 19

1.31 ГБ




Вы не можете начинать темы
Вы не можете отвечать на сообщения
Вы не можете редактировать свои сообщения
Вы не можете удалять свои сообщения
Вы не можете добавлять вложения

Перейти:  
Для Мосгорсуда, Роскомнадзора и рекламодателей: mosgorsud-torrent[собачка]yandex.ru
 Вход
ppkBB3cker v.2 © 2008-2014 @ PPK
[ Time : 0.017s | 14 Queries | GZIP : Off ]

Торрент трекер RUTOR.IN, Не можете зайти на rutor.org? Какой новый адрес рутор? Какое зеркало рутор? Не работает rutor.org и зеркала? Тогда наш торрент специально для вас. Rutor.in неофициальное зеркало rutor. В случае если у Вас заблокирован rutor или вдруг Вы не можете на него зайти, то Вы без труда сможете скачать бесплатно и без рекламы последние новинки кино, игр, сериалов и прочего у нас, на Rutor.in. Не нужно использовать прокси, чтобы зайти на рутор, достаточно воспользоваться нашим ресурсом. Все новые фильмы, игры, сериалы, книги и музыка за 2013 и 2014 годы через торрент бесплатно. Скачивайте фильмы в хорошем качестве, игры для пк, xbox, playstation без регистрации. У нас вы найдете новые Зарубежные сериалы и Русские сериалы 2013, 2014, 2015 годов. Оставайтесь с нами, качайте любимые фильмы, игры, сериалы, книги и музыку.