img image001 image001 image001 image001 image001 image001 image001 image001 image001 image001 image001 image001 image001 image001 image001

Planets Sun Sun Sun
Статистика раздачи
Автор: Nickolas3434 | Размер: 1.46 ГБ | Добавлен: 27 фев 2016
Раздают: 132    Качают: 18
Скачать торрент
Скачать торрент
Описание торрента

СообщениеДобавлено: 27 фев 2016 

Страна: СССР
Производство: К/ст им.Горького
Жанр: драма, комедия
Год выпуска: 1953
Продолжительность: 02:53:07
Перевод: Не требуется
Cубтитры: нет
Оригинальная аудиодорожка: русский
Режиссер: Владимир Сухобоков
В ролях:
Вера Пашенная, Игорь Ильинский, Татьяна Еремеева, Елена Шатрова, Варвара Рыжова, Николай Светловидов, Борис Телегин, Владимир Владиславский, Дмитрий Павлов...
Полный список актёров
Описание:
Фильм-спектакль Государственного академического Малого театра по пьесе А.Н. Островского.
Провинциальная помещица Мурзавецкая, ханжа, скрывающаяся под маской благочестия и добродетели, хочет прибрать к рукам состояние богатой вдовы Купавиной. Для этого она решает женить на молодой вдове своего беспутного и слабовольного племянника. Но приехавший из столицы помещик Беркутов разрушает планы Мурзавецкой. Он входит в доверие к Купавиной и женится на молодой вдове.





Источник: DVD9 R5
Качество видео: DVDRip
Формат видео: AVI
Видео: 576x432 (4:3), 25 fps, XviD ~ 1069 kbps avg, 0.172 bit/pixel
Аудио: 48 kHz, MP3 2.0, 128 kbps
Раздача от:
Общее
Полное имя : Volki.i.ovcy.1953.DVDRip-1.09_[New-team]_by_AVP_Studio.avi
Формат : AVI
Формат/Информация : Audio Video Interleave
Размер файла : 1,46 Гбайт
Продолжительность : 2 ч. 53 м.
Общий поток : 1207 Кбит/сек
Программа кодирования : VirtualDubMod 1.5.10.3 | www.virtualdub-fr.org || (build 2550/release)
Библиотека кодирования : VirtualDubMod build 2550/release
Видео
Идентификатор : 0
Формат : MPEG-4 Visual
Профиль формата : Advanced Simple@L5
Параметр BVOP формата : 1
Параметр QPel формата : Нет
Параметр GMC формата : Без точки перехода
Параметр матрицы формата : Выборочная
Идентификатор кодека : XVID
Идентификатор кодека/Подсказка : XviD
Продолжительность : 2 ч. 53 м.
Битрейт : 1069 Кбит/сек
Ширина : 576 пикселей
Высота : 432 пикселя
Соотношение сторон : 4:3
Частота кадров : 25,000 кадров/сек
Цветовое пространство : YUV
Субдискретизация насыщенности : 4:2:0
Битовая глубина : 8 бит
Тип развёртки : Прогрессивная
Метод сжатия : С потерями
Бит/(Пиксели*Кадры) : 0.172
Размер потока : 1,29 Гбайт (89%)
Библиотека кодирования : XviD 1.2.1 (UTC 2008-12-04)
Аудио
Идентификатор : 1
Формат : MPEG Audio
Версия формата : Version 1
Профиль формата : Layer 3
Идентификатор кодека : 55
Идентификатор кодека/Подсказка : MP3
Продолжительность : 2 ч. 53 м.
Вид битрейта : Постоянный
Битрейт : 128 Кбит/сек
Каналы : 2 канала
Частота : 48,0 КГц
Метод сжатия : С потерями
Размер потока : 158 Мбайт (11%)
Выравнивание : Соединение по промежуткам
Продолжительность промежутка : 40 мс. (1,00 видеокадр)
Время предзагрузки промежутка : 504 мс.
Библиотека кодирования : LAME3.99r
Настройки программы : -m s -V 4 -q 2 -lowpass 17 -b 128





   Похожие торренты   Торрент   Размер 
В этой теме нет новых непрочитанных сообщений. Волки и овцы (1953) DVDRip от New-Team

50 | 12

2.18 ГБ

В этой теме нет новых непрочитанных сообщений. Волки и овцы (1953) DVDRip-AVC от New-Team

109 | 16

2.17 ГБ

В этой теме нет новых непрочитанных сообщений. Волки и овцы: бе-е-е-зумное превращение (2016) WEB-DLRip-AVC от New-Team | iTunes

643 | 29

745.71 МБ

В этой теме нет новых непрочитанных сообщений. Волки и овцы: бе-е-е-зумное превращение (2016) WEB-DLRip-AVC от New-Team | iTunes

2679 | 144

1.46 ГБ

В этой теме нет новых непрочитанных сообщений. Волки и овцы (1952) DVDRip

24 | 6

2.05 ГБ

В этой теме нет новых непрочитанных сообщений. Волки и овцы бе-е-е-зумное превращение (2016) CAMRip

1411 | 57

1.37 ГБ

В этой теме нет новых непрочитанных сообщений. Волки и овцы: бе-е-е-зумное превращение (2016) WEB-DL 1080p | iTunes

4722 | 145

2.91 ГБ




Вы не можете начинать темы
Вы не можете отвечать на сообщения
Вы не можете редактировать свои сообщения
Вы не можете удалять свои сообщения
Вы не можете добавлять вложения

Перейти:  
Для Мосгорсуда, Роскомнадзора и рекламодателей: mosgorsud-torrent[собачка]yandex.ru
 Вход
ppkBB3cker v.2 © 2008-2014 @ PPK
[ Time : 0.081s | 15 Queries | GZIP : On ]

Торрент трекер RUTOR.IN, Не можете зайти на rutor.org? Какой новый адрес рутор? Какое зеркало рутор? Не работает rutor.org и зеркала? Тогда наш торрент специально для вас. Rutor.in неофициальное зеркало rutor. В случае если у Вас заблокирован rutor или вдруг Вы не можете на него зайти, то Вы без труда сможете скачать бесплатно и без рекламы последние новинки кино, игр, сериалов и прочего у нас, на Rutor.in. Не нужно использовать прокси, чтобы зайти на рутор, достаточно воспользоваться нашим ресурсом. Все новые фильмы, игры, сериалы, книги и музыка за 2013 и 2014 годы через торрент бесплатно. Скачивайте фильмы в хорошем качестве, игры для пк, xbox, playstation без регистрации. У нас вы найдете новые Зарубежные сериалы и Русские сериалы 2013, 2014, 2015 годов. Оставайтесь с нами, качайте любимые фильмы, игры, сериалы, книги и музыку.