img image001 image001 image001 image001 image001 image001 image001 image001 image001 image001 image001 image001 image001 image001 image001

Planets Sun Sun Sun
Статистика раздачи
Автор: Nickolas3434 | Размер: 4.37 ГБ | Добавлен: 29 фев 2016
Раздают: 187    Качают: 26
Скачать торрент
Скачать торрент
Описание торрента

СообщениеДобавлено: 29 фев 2016 


Информация о фильме
Название: Ласковый май
Год выхода: 2009
Жанр: Драма, музыкальный, биография
Режиссёр: Владимир Виноградов
В ролях: Вячеслав Манучаров, Сергей Романович, Дмитрий Блохин, Виктор Вержбицкий, Людмила Зайцева, Раиса Конюхова, Максим Костромыкин, Максим Литовченко, Виктория Матвеева, Инга Оболдина, Марина Орел, Раиса Рязанова, Пётр Скворцов, Владимир Стеклов, Екатерина Федулова, Данила Чванов, Иван Агапов, Екатерина Садовская, Ольга Турутина, Александр Фисенко, Александр Нехороших, Виктор Бунаков
О фильме: В 1985 году в Советском Союзе началась перестройка и появилась группа "Ласковый май". На их концертах были только аншлаги, от неразделённой любви к ним совершались самоубийства. Фигура Михаила Горбачёва меркла в лучах славы создателя "Ласкового мая" - Андрея Разина. Случайно сделанная фотография на пляже, где Андрей Разин, будучи ребенком, запечатлён с семьей Горбачёвых, перевернула его судьбу. Именно с помощью этой фотографии он стал племянником Горбачёва. Он заявил об этом не напрямую - так, намекнул, и ему мгновенно поверили. Функционеры всех рангов действовали без промедления: перед ним распахнулись двери телевидения и радио, советская эстрада легла к его ногам. Разин ездил по всем детским домам Советского Союза в поисках одарённых детей для своих групп-двойников. "Ласковый май" гастролировал одновременно в нескольких городах, давая в день по 5-6 концертов. За все десять лет существования группы не было ни одного не проданного или сданного билета, каждый пятый житель СССР побывал на их концертах. Прошло время, ушёл Горбачёв, развалился Советский Союз, закончилась эпоха "Ласкового мая", но до сих пор, под современные аранжировки их песен, зажигают на дискотеках современные тинэйджеры.

Выпущено: Россия, DixiMedia
Продолжительность: 01:54:48
Перевод: Не требуется
Файл
Качество: BDRip (720p) [Исходник: Blu-ray 1080p AVC DTS 5.1]
Видео: MPEG-4 AVC, 5004 Кбит/с, 1280х720 (16:9), 24 кадр/с, 0.226 bit/pixel
Аудио: Русский, Dolby AC3, 48000 Гц, 448 Кбит/с, 6 каналов (5.1)
Субтитры: Нет
Навигация по главам: Есть (Сохранены оригинальные чаптеры как на Blu-ray)
• Роль Андрея Разина мог сыграть Алексей Воробьёв.
• Сергей Кузнецов покинул группу в 1989 году, в фильме же он остаётся в ней до самого конца.
• История с комсомольцами-рэкетирами не выглядит правдоподобной, если учесть, что в 1991 году КПСС не являлась «партией власти», а сам комсомол перестал существовать ещё в 1990-ом.
• В сцене, когда ребята устраивают драку на контрольной, видно, что Серёжа пишет ручкой фирмы Nixon. В России эти ручки появились лишь в 1999 году.
General
Unique ID : 207026341876121889389475308071869817769 (0x9BBFD2B74FD70775802A2801FC4123A9)
Complete name : Laskovyy.may.2009.BDRip.720p.mkv
Format : Matroska
Format version : Version 4 / Version 2
File size : 4.37 GiB
Duration : 1h 54mn
Overall bit rate : 5 453 Kbps
Movie name : Ласковый май (2009) BDRip (720p) от ivandubskoj
Encoded date : UTC 2016-02-28 12:58:59
Writing application : mkvmerge v7.8.0 ('River Man') 64bit built on Mar 27 2015 16:31:37
Writing library : libebml v1.3.1 + libmatroska v1.4.2
Video
ID : 1
Format : AVC
Format/Info : Advanced Video Codec
Format profile : High@L4.1
Format settings, CABAC : Yes
Format settings, ReFrames : 9 frames
Codec ID : V_MPEG4/ISO/AVC
Duration : 1h 54mn
Bit rate : 5 004 Kbps
Width : 1 280 pixels
Height : 720 pixels
Display aspect ratio : 16:9
Frame rate mode : Constant
Frame rate : 24.000 fps
Color space : YUV
Chroma subsampling : 4:2:0
Bit depth : 8 bits
Scan type : Progressive
Bits/(Pixel*Frame) : 0.226
Stream size : 3.93 GiB (90%)
Title : Ласковый май (2009)
Writing library : x264 core 146 r2538 121396c
Encoding settings : cabac=1 / ref=9 / deblock=1:-3:-3 / analyse=0x3:0x113 / me=umh / subme=11 / psy=1 / psy_rd=1.00:0.00 / mixed_ref=1 / me_range=32 / chroma_me=1 / trellis=2 / 8x8dct=1 / cqm=0 / deadzone=21,11 / fast_pskip=0 / chroma_qp_offset=-2 / threads=6 / lookahead_threads=1 / sliced_threads=0 / nr=0 / decimate=1 / interlaced=0 / bluray_compat=0 / constrained_intra=0 / bframes=7 / b_pyramid=2 / b_adapt=2 / b_bias=0 / direct=3 / weightb=1 / open_gop=0 / weightp=2 / keyint=240 / keyint_min=23 / scenecut=40 / intra_refresh=0 / rc_lookahead=60 / rc=2pass / mbtree=1 / bitrate=5004 / ratetol=1.0 / qcomp=0.60 / qpmin=0 / qpmax=69 / qpstep=4 / cplxblur=20.0 / qblur=0.5 / vbv_maxrate=50000 / vbv_bufsize=62500 / nal_hrd=none / filler=0 / ip_ratio=1.40 / aq=1:1.00
Language : Russian
Default : Yes
Forced : No
Audio
ID : 2
Format : AC-3
Format/Info : Audio Coding 3
Mode extension : CM (complete main)
Format settings, Endianness : Big
Codec ID : A_AC3
Duration : 1h 54mn
Bit rate mode : Constant
Bit rate : 448 Kbps
Channel(s) : 6 channels
Channel positions : Front: L C R, Side: L R, LFE
Sampling rate : 48.0 KHz
Bit depth : 16 bits
Compression mode : Lossy
Stream size : 368 MiB (8%)
Title : Original
Language : Russian
Default : Yes
Forced : No
Menu
00:00:00.000 : ru:Chapter 01
00:07:32.416 : ru:Chapter 02
00:11:33.583 : ru:Chapter 03
00:16:22.291 : ru:Chapter 04
00:23:55.291 : ru:Chapter 05
00:27:18.458 : ru:Chapter 06
00:31:06.166 : ru:Chapter 07
00:35:16.791 : ru:Chapter 08
00:47:42.250 : ru:Chapter 09
00:55:54.333 : ru:Chapter 10
01:03:14.583 : ru:Chapter 11
01:13:41.041 : ru:Chapter 12
01:16:02.416 : ru:Chapter 13
01:22:46.041 : ru:Chapter 14
01:32:30.875 : ru:Chapter 15
01:35:53.416 : ru:Chapter 16
01:44:35.208 : ru:Chapter 17
01:52:44.875 : ru:Chapter 18
01:54:48.166 : ru:Chapter 19


Автор рипа - ivandubskoj



   Похожие торренты   Торрент   Размер 
В этой теме нет новых непрочитанных сообщений. Ласковый май (2009) Blu-ray Remux (1080p) от ivandubskoj | Лицензия

43 | 15

17.15 ГБ

В этой теме нет новых непрочитанных сообщений. Ласковый май (2009) BDRip | Лицензия

191 | 51

1.45 ГБ

В этой теме нет новых непрочитанных сообщений. Ласковый май (2009) BDRip | Лицензия

170 | 18

749.82 МБ

В этой теме нет новых непрочитанных сообщений. О, счастливчик! (2009) BDRip 720p от ivandubskoj | Лицензия

131 | 30

4.38 ГБ

В этой теме нет новых непрочитанных сообщений. О, счастливчик! (2009) BDRip от ivandubskoj | Лицензия

87 | 19

745.17 МБ

В этой теме нет новых непрочитанных сообщений. Ласковый май (2009) BDRip от HQCLUB

3 | 5

2.18 ГБ

В этой теме нет новых непрочитанных сообщений. Ласковый май (2009) BDRip от HQ-VIDEO

9 | 8

2.18 ГБ




Вы не можете начинать темы
Вы не можете отвечать на сообщения
Вы не можете редактировать свои сообщения
Вы не можете удалять свои сообщения
Вы не можете добавлять вложения

Перейти:  
Для Мосгорсуда, Роскомнадзора и рекламодателей: mosgorsud-torrent[собачка]yandex.ru
 Вход
ppkBB3cker v.2 © 2008-2014 @ PPK
[ Time : 0.029s | 14 Queries | GZIP : Off ]

Торрент трекер RUTOR.IN, Не можете зайти на rutor.org? Какой новый адрес рутор? Какое зеркало рутор? Не работает rutor.org и зеркала? Тогда наш торрент специально для вас. Rutor.in неофициальное зеркало rutor. В случае если у Вас заблокирован rutor или вдруг Вы не можете на него зайти, то Вы без труда сможете скачать бесплатно и без рекламы последние новинки кино, игр, сериалов и прочего у нас, на Rutor.in. Не нужно использовать прокси, чтобы зайти на рутор, достаточно воспользоваться нашим ресурсом. Все новые фильмы, игры, сериалы, книги и музыка за 2013 и 2014 годы через торрент бесплатно. Скачивайте фильмы в хорошем качестве, игры для пк, xbox, playstation без регистрации. У нас вы найдете новые Зарубежные сериалы и Русские сериалы 2013, 2014, 2015 годов. Оставайтесь с нами, качайте любимые фильмы, игры, сериалы, книги и музыку.