img image001 image001 image001 image001 image001 image001 image001 image001 image001 image001 image001 image001 image001 image001 image001

Planets Sun Sun Sun
Статистика раздачи
Автор: Nickolas3434 | Размер: 4.38 ГБ | Добавлен: 01 мар 2016
Раздают: 131    Качают: 30
Скачать торрент
Скачать торрент
Описание торрента

СообщениеДобавлено: 01 мар 2016 


Информация о фильме
Название: О, счастливчик!
Год выхода: 2009
Жанр: Комедия, приключения, фэнтези
Режиссёр: Эдуард Парри
В ролях: Михаил Тарабукин, Владимир Меньшов, Сергей Шакуров, Владимир Кристовский, Поля Полякова, Вячеслав Разбегаев, Семен Фурман, Сергей Векслер, Армен Джигарханян, Алексей Панин, Андрей Мерзликин, Максим Коновалов, Виталий Хаев, Сергей Зверев, Александр Стефанцов, Игорь Куролесов, Алексей Дмитриев, Александр Ясинский, Евгений Хоменок, Дмитрий Гаврилов, Елена Лабутина
О фильме:
Это молодёжная комедия о том, как в один прекрасный день, Славику, обычному молодому человеку показалось, что жизнь его слишком банальна, непримечательна и лишена всяческого смысла. У него нет приличной работы, образования, девушки… Он решает умереть, прыгнув с моста. Но неожиданно появляются два экстравагантных джентльмена: Олег Генрихович и Константин Германович, которые убеждают героя в том, что самоубийство - не выход. Ему предлагают поменять свою биографию и начать новую благополучную жизнь. Но как только Славик избавляется от собственных проблем, тут же начинаются новые! Игра в «чужую» жизнь превращается в калейдоскоп веселых, грустных, а порой и страшных историй...

Выпущено: Россия, Star Media, Kyiv Film
Продолжительность: 01:35:53
Перевод: Не требуется
Файл
Контейнер: MKV
Кодек: MPEG-4 AVC
Качество: BDRip (720p) [Исходник: Blu-ray RUS 1080p AVC LPCM 5.1]
Видео: MPEG-4 AVC, 1280x544 (2.35:1), 5895 Кбит/с, 24 кадр/с, 0.353 bit/pixel
Аудио: Русский, Dolby AC3, 48000 Гц, 640 Кбит/с, 6 каналов (5.1)
Субтитры: Русские, украинские (полные, SRT)
Навигация по главам: Есть (Сохранены оригинальные чаптеры, как на Blu-ray)
General
Unique ID : 185171190092808415434702542743493767906 (0x8B4EAC8A330E6503BBE1993DDE6172E2)
Complete name : O.schastlivchik.2009.BDRip.720p.mkv
Format : Matroska
Format version : Version 4 / Version 2
File size : 4.38 GiB
Duration : 1h 35mn
Overall bit rate : 6 536 Kbps
Movie name : О, счастливчик! (2009) BDRip (720p) от ivandubskoj
Encoded date : UTC 2016-02-27 15:33:10
Writing application : mkvmerge v7.8.0 ('River Man') 64bit built on Mar 27 2015 16:31:37
Writing library : libebml v1.3.1 + libmatroska v1.4.2
Video
ID : 1
Format : AVC
Format/Info : Advanced Video Codec
Format profile : High@L4.1
Format settings, CABAC : Yes
Format settings, ReFrames : 9 frames
Codec ID : V_MPEG4/ISO/AVC
Duration : 1h 35mn
Bit rate : 5 895 Kbps
Width : 1 280 pixels
Height : 544 pixels
Display aspect ratio : 2.35:1
Frame rate mode : Constant
Frame rate : 24.000 fps
Color space : YUV
Chroma subsampling : 4:2:0
Bit depth : 8 bits
Scan type : Progressive
Bits/(Pixel*Frame) : 0.353
Stream size : 3.86 GiB (88%)
Title : О, счастливчик! (2009)
Writing library : x264 core 146 r2538 121396c
Encoding settings : cabac=1 / ref=9 / deblock=1:-3:-3 / analyse=0x3:0x113 / me=umh / subme=11 / psy=1 / psy_rd=1.00:0.00 / mixed_ref=1 / me_range=32 / chroma_me=1 / trellis=2 / 8x8dct=1 / cqm=0 / deadzone=21,11 / fast_pskip=0 / chroma_qp_offset=-2 / threads=6 / lookahead_threads=1 / sliced_threads=0 / nr=0 / decimate=1 / interlaced=0 / bluray_compat=0 / constrained_intra=0 / bframes=6 / b_pyramid=2 / b_adapt=2 / b_bias=0 / direct=3 / weightb=1 / open_gop=0 / weightp=2 / keyint=240 / keyint_min=23 / scenecut=40 / intra_refresh=0 / rc_lookahead=60 / rc=2pass / mbtree=1 / bitrate=5895 / ratetol=1.0 / qcomp=0.60 / qpmin=0 / qpmax=69 / qpstep=4 / cplxblur=20.0 / qblur=0.5 / vbv_maxrate=50000 / vbv_bufsize=62500 / nal_hrd=none / filler=0 / ip_ratio=1.40 / aq=1:1.00
Language : Russian
Default : Yes
Forced : No
Audio
ID : 2
Format : AC-3
Format/Info : Audio Coding 3
Mode extension : CM (complete main)
Format settings, Endianness : Big
Codec ID : A_AC3
Duration : 1h 35mn
Bit rate mode : Constant
Bit rate : 640 Kbps
Channel(s) : 6 channels
Channel positions : Front: L C R, Side: L R, LFE
Sampling rate : 48.0 KHz
Bit depth : 16 bits
Compression mode : Lossy
Stream size : 439 MiB (10%)
Title : Original
Language : Russian
Default : Yes
Forced : No
Text #1
ID : 3
Format : UTF-8
Codec ID : S_TEXT/UTF8
Codec ID/Info : UTF-8 Plain Text
Title : Full
Language : Russian
Default : No
Forced : No
Text #2
ID : 4
Format : UTF-8
Codec ID : S_TEXT/UTF8
Codec ID/Info : UTF-8 Plain Text
Title : Full
Language : Ukrainian
Default : No
Forced : No
Menu
00:00:00.000 : en:Chapter 01
00:05:02.291 : en:Chapter 02
00:16:06.916 : en:Chapter 03
00:22:08.916 : en:Chapter 04
00:30:50.750 : en:Chapter 05
00:37:01.583 : en:Chapter 06
00:42:19.125 : en:Chapter 07
00:49:46.541 : en:Chapter 08
01:00:50.500 : en:Chapter 09
01:08:29.541 : en:Chapter 10
01:21:59.000 : en:Chapter 11
01:32:25.541 : en:Chapter 12
01:35:51.416 : en:Chapter 13


Автор рипа - ivandubskoj



   Похожие торренты   Торрент   Размер 
В этой теме нет новых непрочитанных сообщений. О, счастливчик! (2009) BDRip от ivandubskoj | Лицензия

87 | 19

745.17 МБ

В этой теме нет новых непрочитанных сообщений. О, счастливчик! (2009) Blu-Ray Remux 1080p от ivandubskoj | Лицензия

17 | 6

18.18 ГБ

В этой теме нет новых непрочитанных сообщений. О, счастливчик! (2009) Blu-Ray Remux 1080p от ivandubskoj

4 | 17

17.19 ГБ

В этой теме нет новых непрочитанных сообщений. Ласковый май (2009) BDRip 720p от ivandubskoj | Лицензия

187 | 26

4.37 ГБ

В этой теме нет новых непрочитанных сообщений. Счастливчик / The Lucky One (2012) BDRip 720p | лицензия

26 | 5

5.84 ГБ

В этой теме нет новых непрочитанных сообщений. Счастливчик / The Lucky One (2012) BDRip 720p | Лицензия

91 | 7

4.82 ГБ

В этой теме нет новых непрочитанных сообщений. О, счастливчик! (2009) BDRip от HQCLUB

107 | 15

1.46 ГБ




Вы не можете начинать темы
Вы не можете отвечать на сообщения
Вы не можете редактировать свои сообщения
Вы не можете удалять свои сообщения
Вы не можете добавлять вложения

Перейти:  
Для Мосгорсуда, Роскомнадзора и рекламодателей: mosgorsud-torrent[собачка]yandex.ru
 Вход
ppkBB3cker v.2 © 2008-2014 @ PPK
[ Time : 0.018s | 14 Queries | GZIP : Off ]

Торрент трекер RUTOR.IN, Не можете зайти на rutor.org? Какой новый адрес рутор? Какое зеркало рутор? Не работает rutor.org и зеркала? Тогда наш торрент специально для вас. Rutor.in неофициальное зеркало rutor. В случае если у Вас заблокирован rutor или вдруг Вы не можете на него зайти, то Вы без труда сможете скачать бесплатно и без рекламы последние новинки кино, игр, сериалов и прочего у нас, на Rutor.in. Не нужно использовать прокси, чтобы зайти на рутор, достаточно воспользоваться нашим ресурсом. Все новые фильмы, игры, сериалы, книги и музыка за 2013 и 2014 годы через торрент бесплатно. Скачивайте фильмы в хорошем качестве, игры для пк, xbox, playstation без регистрации. У нас вы найдете новые Зарубежные сериалы и Русские сериалы 2013, 2014, 2015 годов. Оставайтесь с нами, качайте любимые фильмы, игры, сериалы, книги и музыку.