img image001 image001 image001 image001 image001 image001 image001 image001 image001 image001 image001 image001 image001 image001 image001

Planets Sun Sun Sun
Статистика раздачи
Автор: Nickolas3434 | Размер: 2.34 ГБ | Добавлен: 01 мар 2016
Раздают: 96    Качают: 11
Скачать торрент
Скачать торрент
Описание торрента

СообщениеДобавлено: 01 мар 2016 


Информация о фильме
Название: Прощание
Год выхода: 1981
Жанр: Драма
Режиссер: Элем Климов
В ролях: Стефания Станюта, Лев Дуров, Алексей Петренко, Леонид Крюк, Вадим Яковенко, Юрий Катин-Ярцев, Денис Лупов, Майя Булгакова, Найдан Гендунова, Галина Дёмина, Анна Кустова, Любовь Малиновская, Надежда Погоришная, Людмила Полякова, Игорь Безяев, Михаил Бычков
О фильме:
По мотивам повести Валентина Распутина «Прощание с Матерой». Матера - остров, на котором располагалась деревня с таким же названием, простоявшая на этом месте триста лет, - должна уйти под воду. Немногочисленные ее обитатели готовятся к переселению. Умирающая мать зовет к себе детей. Неимоверно тяжело расставаться с родным кровом жителям деревни, особенно Дарье, «самой старой из старух». Все, каждый по-своему, прощаются с родными местами. «Прощание с Матерой» задумывалось Ларисой Шепитько («Зной», «Крылья», «Восхождение») как картина, где должна была победить Жизнь — как символ и как итог. Трагедия произошла 2 июля 1979 года на 137 км Ленинградского шоссе. Направляясь на съемку, в автокатастрофе трагически погибли режиссер-постановщик фильма Лариса Шепитько, оператор Владимир Чухнов, художник Юрий Фоменко и их ассистенты. Ленту о деревенской Атлантиде закончил муж Шепитько Элем Климов («Агония», «Иди и смотри»). Он снял ее в стилистике Шепитько и назвал просто «Прощание».
Страна: СССР, Мосфильм
Продолжительность: 02:01:19
Перевод: не требуется
Файл
Кодек: x264
Качество: DVDRip-AVC
Видео: MPEG-4 AVC, 2200 Кбит/с, 702x572@752x572
Звук: AC3, 6 ch, 448 Кбит/с, AC3, 1 ch, 128 Кбит/с

x264 [info]: frame I:868 Avg QP:14.45 size: 78600
x264 [info]: frame P:52289 Avg QP:19.01 size: 23137
x264 [info]: frame B:128826 Avg QP:20.47 size: 5610
=================================================================================================================
Общее
Уникальный идентификатор : 175586670358534025459549700236903388372 (0x8418C33B9496B8FF8A8012A59D7F14D4)
Полное имя : D:Прощание_1981-DVDRip-AVC.mkv
Формат : Matroska
Версия формата : Version 2
Размер файла : 2,34 Гбайт
Продолжительность : 2 ч. 1 м.
Общий поток : 2761 Кбит/сек
Дата кодирования : UTC 2016-02-28 10:31:37
Программа кодирования : mkvmerge v5.8.0 ('No Sleep / Pillow') built on Sep 2 2012 15:37:04
Библиотека кодирования : libebml v1.2.3 + libmatroska v1.3.0
Видео
Идентификатор : 1
Формат : AVC
Формат/Информация : Advanced Video Codec
Профиль формата : High@L4.1
Параметр CABAC формата : Да
Параметр ReFrames формата : 14 кадров
Идентификатор кодека : V_MPEG4/ISO/AVC
Продолжительность : 2 ч. 1 м.
Битрейт : 2200 Кбит/сек
Ширина : 702 пикселя
Высота : 572 пикселя
Соотношение сторон : 4:3
Режим частоты кадров : Постоянный
Частота кадров : 25,000 кадров/сек
Цветовое пространство : YUV
Субдискретизация насыщенности : 4:2:0
Битовая глубина : 8 бит
Тип развёртки : Прогрессивная
Бит/(Пиксели*Кадры) : 0.219
Размер потока : 1,82 Гбайт (78%)
Библиотека кодирования : x264 core 148 r2638 7599210
Настройки программы : cabac=1 / ref=14 / deblock=1:-2:-2 / analyse=0x3:0x133 / me=umh / subme=10 / psy=1 / psy_rd=1.07:0.10 / mixed_ref=1 / me_range=32 / chroma_me=1 / trellis=2 / 8x8dct=1 / cqm=0 / deadzone=21,11 / fast_pskip=0 / chroma_qp_offset=-3 / threads=12 / lookahead_threads=3 / sliced_threads=0 / nr=0 / decimate=0 / interlaced=0 / bluray_compat=0 / constrained_intra=0 / bframes=10 / b_pyramid=2 / b_adapt=2 / b_bias=0 / direct=3 / weightb=1 / open_gop=0 / weightp=2 / keyint=250 / keyint_min=25 / scenecut=40 / intra_refresh=0 / rc=2pass / mbtree=0 / bitrate=2200 / ratetol=1.0 / qcomp=0.63 / qpmin=0 / qpmax=39 / qpstep=4 / cplxblur=20.0 / qblur=0.5 / ip_ratio=1.40 / pb_ratio=1.30 / aq=1:1.00
Язык : English
Default : Да
Forced : Нет
Основные цвета : BT.601 PAL
Характеристики трансфера : BT.470 System B, BT.470 System G
Коэффициенты матрицы : BT.601
Аудио #1
Идентификатор : 2
Формат : AC-3
Формат/Информация : Audio Coding 3
Расширение режима : CM (complete main)
Параметр Endianness формата : Big
Идентификатор кодека : A_AC3
Продолжительность : 2 ч. 1 м.
Вид битрейта : Постоянный
Битрейт : 448 Кбит/сек
Каналы : 6 каналов
Расположение каналов : Front: L C R, Side: L R, LFE
Частота : 48,0 КГц
Битовая глубина : 16 бит
Метод сжатия : С потерями
Задержка видео : 480 мс.
Размер потока : 389 Мбайт (16%)
Язык : Russian
Default : Да
Forced : Нет
Аудио #2
Идентификатор : 3
Формат : AC-3
Формат/Информация : Audio Coding 3
Расширение режима : CM (complete main)
Параметр Endianness формата : Big
Идентификатор кодека : A_AC3
Продолжительность : 2 ч. 1 м.
Вид битрейта : Постоянный
Битрейт : 112 Кбит/сек
Каналы : 1 канал
Расположение каналов : Front: C
Частота : 48,0 КГц
Битовая глубина : 16 бит
Метод сжатия : С потерями
Задержка видео : 520 мс.
Размер потока : 97,2 Мбайт (4%)
Язык : Russian
Default : Нет
Forced : Нет

Релиз от:
Автор релиза:



   Похожие торренты   Торрент   Размер 
В этой теме нет новых непрочитанных сообщений. Прощание [01-02 из 02] (2013) WEB-DLRip-AVC от ExKinoRay

18 | 2

1.47 ГБ

В этой теме нет новых непрочитанных сообщений. Шестой (1981) DVDRip-AVC от ExKinoRay

250 | 18

1.83 ГБ

В этой теме нет новых непрочитанных сообщений. Карнавал (1981) DVDRip-AVC от ExKinoRay

92 | 13

3.29 ГБ

В этой теме нет новых непрочитанных сообщений. Сильва (1981) DVDRip-AVC от ExKinoRay

293 | 62

2.77 ГБ

В этой теме нет новых непрочитанных сообщений. Ответный ход (1981) DVDRip от ExKinoRay

38 | 4

1.37 ГБ

В этой теме нет новых непрочитанных сообщений. Агония (1981) DVDRip-AVC от ExKinoRay

109 | 4

2.88 ГБ

В этой теме нет новых непрочитанных сообщений. Александр Маленький (1981) DVDRip-AVC от ExKinoRay

18 | 14

2.6 ГБ




Вы не можете начинать темы
Вы не можете отвечать на сообщения
Вы не можете редактировать свои сообщения
Вы не можете удалять свои сообщения
Вы не можете добавлять вложения

Перейти:  
Для Мосгорсуда, Роскомнадзора и рекламодателей: mosgorsud-torrent[собачка]yandex.ru
 Вход
ppkBB3cker v.2 © 2008-2014 @ PPK
[ Time : 0.026s | 15 Queries | GZIP : Off ]

Торрент трекер RUTOR.IN, Не можете зайти на rutor.org? Какой новый адрес рутор? Какое зеркало рутор? Не работает rutor.org и зеркала? Тогда наш торрент специально для вас. Rutor.in неофициальное зеркало rutor. В случае если у Вас заблокирован rutor или вдруг Вы не можете на него зайти, то Вы без труда сможете скачать бесплатно и без рекламы последние новинки кино, игр, сериалов и прочего у нас, на Rutor.in. Не нужно использовать прокси, чтобы зайти на рутор, достаточно воспользоваться нашим ресурсом. Все новые фильмы, игры, сериалы, книги и музыка за 2013 и 2014 годы через торрент бесплатно. Скачивайте фильмы в хорошем качестве, игры для пк, xbox, playstation без регистрации. У нас вы найдете новые Зарубежные сериалы и Русские сериалы 2013, 2014, 2015 годов. Оставайтесь с нами, качайте любимые фильмы, игры, сериалы, книги и музыку.