img image001 image001 image001 image001 image001 image001 image001 image001 image001 image001 image001 image001 image001 image001 image001

Planets Sun Sun Sun
Статистика раздачи
Автор: Nickolas3434 | Размер: 1.54 ГБ | Добавлен: 01 мар 2016
Раздают: 228    Качают: 36
Скачать торрент
Скачать торрент
Описание торрента

СообщениеДобавлено: 01 мар 2016 


Информация о фильме
Название: Планета бурь
Год выхода: 1961
Жанр: Фантастика, приключения
Режиссер: Павел Клушанцев
В ролях: Владимир Емельянов, Георгий Жжёнов, Геннадий Вернов, Юрий Саранцев, Кюнна Игнатова, Георгий Тейх
О фильме:
На планету Венера отправляется первая советская космическая экспедиция из трех кораблей. При подходе к Венере один из кораблей гибнет. Экипажи двух других кораблей, среди которых находятся иностранец и робот "железный Джон", благополучно совершают посадку. Две группы движутся по направлению друг к другу. При этом на орбите остается один корабль с космонавтом на борту. Прежде чем герои найдут друг друга и улетят на Землю, их застигнет извержение вулкана, они погрузятся на морское дно, встретят неведомых животных и достойно перенесут все психологические проблемы малых коллективов в экстремальных ситуациях.
Страна: СССР, Леннаучфильм
Продолжительность: 01:21:49
Перевод: не требуется
Файл
Кодек: x264
Качество: DVDRip-AVC
Видео: MPEG-4, 2500 Кбит/с, 720x480@720x536
Звук: АС3, 2 ch, 192 Кбит/с

x264 [info]: frame I:732 Avg QP:16.13 size: 77754
x264 [info]: frame P:25731 Avg QP:19.19 size: 29831
x264 [info]: frame B:91244 Avg QP:20.58 size: 7778
x264 [info]: consecutive B-frames: 1.3% 2.3% 10.1% 22.8% 21.7% 31.5% 5.8% 2.2% 1.3% 0.7% 0.3%
==============================================================================================================
Общее
Уникальный идентификатор : 231820753506740692554063706863771966779 (0xAE670D975D92345984C1397A53C9DD3B)
Полное имя : D:Планета бурь_1961-DVDRip-AVC.mkv
Формат : Matroska
Версия формата : Version 2
Размер файла : 1,54 Гбайт
Продолжительность : 1 ч. 21 м.
Общий поток : 2694 Кбит/сек
Дата кодирования : UTC 2016-02-29 12:16:18
Программа кодирования : mkvmerge v5.8.0 ('No Sleep / Pillow') built on Sep 2 2012 15:37:04
Библиотека кодирования : libebml v1.2.3 + libmatroska v1.3.0
Видео
Идентификатор : 1
Формат : AVC
Формат/Информация : Advanced Video Codec
Профиль формата : High@L4.1
Параметр CABAC формата : Да
Параметр ReFrames формата : 15 кадров
Идентификатор кодека : V_MPEG4/ISO/AVC
Продолжительность : 1 ч. 21 м.
Битрейт : 2500 Кбит/сек
Ширина : 720 пикселей
Высота : 480 пикселей
Соотношение сторон : 4:3
Режим частоты кадров : Постоянный
Частота кадров : 23,976 кадра/сек
Стандарт вещания : NTSC
Цветовое пространство : YUV
Субдискретизация насыщенности : 4:2:0
Битовая глубина : 8 бит
Тип развёртки : Прогрессивная
Бит/(Пиксели*Кадры) : 0.302
Размер потока : 1,40 Гбайт (91%)
Библиотека кодирования : x264 core 148 r2638 7599210
Настройки программы : cabac=1 / ref=15 / deblock=1:-2:-2 / analyse=0x3:0x133 / me=umh / subme=10 / psy=1 / psy_rd=1.05:0.13 / mixed_ref=1 / me_range=32 / chroma_me=1 / trellis=2 / 8x8dct=1 / cqm=0 / deadzone=21,11 / fast_pskip=0 / chroma_qp_offset=-3 / threads=12 / lookahead_threads=3 / sliced_threads=0 / nr=0 / decimate=0 / interlaced=0 / bluray_compat=0 / constrained_intra=0 / bframes=10 / b_pyramid=2 / b_adapt=2 / b_bias=0 / direct=3 / weightb=1 / open_gop=0 / weightp=2 / keyint=240 / keyint_min=23 / scenecut=40 / intra_refresh=0 / rc=2pass / mbtree=0 / bitrate=2500 / ratetol=1.0 / qcomp=0.63 / qpmin=0 / qpmax=39 / qpstep=4 / cplxblur=20.0 / qblur=0.5 / ip_ratio=1.40 / pb_ratio=1.30 / aq=1:1.00
Язык : English
Default : Да
Forced : Нет
Основные цвета : BT.601 NTSC
Характеристики трансфера : BT.601
Коэффициенты матрицы : BT.601
Аудио
Идентификатор : 2
Формат : AC-3
Формат/Информация : Audio Coding 3
Расширение режима : CM (complete main)
Параметр Endianness формата : Big
Идентификатор кодека : A_AC3
Продолжительность : 1 ч. 21 м.
Вид битрейта : Постоянный
Битрейт : 192 Кбит/сек
Каналы : 2 канала
Расположение каналов : Front: L R
Частота : 48,0 КГц
Битовая глубина : 16 бит
Метод сжатия : С потерями
Размер потока : 112 Мбайт (7%)
Язык : Russian
Default : Да
Forced : Нет

Релиз от:
Автор релиза:



   Похожие торренты   Торрент   Размер 
В этой теме нет новых непрочитанных сообщений. Планета бурь (1961) DVDRip

328 | 96

1.37 ГБ

В этой теме нет новых непрочитанных сообщений. Планета бурь (1961) DVDRip-AVC

194 | 80

1.65 ГБ

В этой теме нет новых непрочитанных сообщений. Планета бурь (1961) DVD9

1 | 2

6.24 ГБ

В этой теме нет новых непрочитанных сообщений. Планета бурь (1962) DVDRip

66 | 23

700.04 МБ

В этой теме нет новых непрочитанных сообщений. Планета бурь (1962) DVDRip | Реставрация

436 | 25

2.05 ГБ

В этой теме нет новых непрочитанных сообщений. Страна Бурь / Rokland (2011) DVDRip | L1

7 | 3

699.57 МБ

В этой теме нет новых непрочитанных сообщений. Чистое небо (1961) DVDRip-AVC от ExKinoRay

100 | 10

1.87 ГБ




Вы не можете начинать темы
Вы не можете отвечать на сообщения
Вы не можете редактировать свои сообщения
Вы не можете удалять свои сообщения
Вы не можете добавлять вложения

Перейти:  
Для Мосгорсуда, Роскомнадзора и рекламодателей: mosgorsud-torrent[собачка]yandex.ru
 Вход
ppkBB3cker v.2 © 2008-2014 @ PPK
[ Time : 0.020s | 14 Queries | GZIP : Off ]

Торрент трекер RUTOR.IN, Не можете зайти на rutor.org? Какой новый адрес рутор? Какое зеркало рутор? Не работает rutor.org и зеркала? Тогда наш торрент специально для вас. Rutor.in неофициальное зеркало rutor. В случае если у Вас заблокирован rutor или вдруг Вы не можете на него зайти, то Вы без труда сможете скачать бесплатно и без рекламы последние новинки кино, игр, сериалов и прочего у нас, на Rutor.in. Не нужно использовать прокси, чтобы зайти на рутор, достаточно воспользоваться нашим ресурсом. Все новые фильмы, игры, сериалы, книги и музыка за 2013 и 2014 годы через торрент бесплатно. Скачивайте фильмы в хорошем качестве, игры для пк, xbox, playstation без регистрации. У нас вы найдете новые Зарубежные сериалы и Русские сериалы 2013, 2014, 2015 годов. Оставайтесь с нами, качайте любимые фильмы, игры, сериалы, книги и музыку.