img image001 image001 image001 image001 image001 image001 image001 image001 image001 image001 image001 image001 image001 image001 image001

Planets Sun Sun Sun
Статистика раздачи
Автор: Nickolas3434 | Размер: 1.09 ГБ | Добавлен: 03 мар 2016
Раздают: 36    Качают: 10
Скачать торрент
Скачать торрент
Описание торрента

СообщениеДобавлено: 03 мар 2016 

Страна: СССР
Производство: Ленфильм
Жанр: драма
Год выпуска: 1953
Продолжительность: 02:28:25
Перевод: Не требуется
Cубтитры: нет
Оригинальная аудиодорожка: русский
Режиссер: Тамара Родионова
В ролях:
Василий Софронов, Елена Грановская, Николай Корн, Валентина Кибардина, Нина Ольхина, Иван Ефремов, Степан Пономаренко, Анна Никритина, Александр Соколов, Виталий Иллич, Виктор Чайников, Николай Дмитриев, Владислав Стржельчик, Александр Лариков, Борис Рыжухин, Евгений Горюнов, Евгений Иванов, Александра Фомина, Николай Семилетов, Павел Колобов, Иван Пальму, А. Москвин, Александр Чепурнов...
Полный список актёров
Описание:
Фильм-спектакль по одноименной пьесе М.Горького в постановке Ленинградского БДТ, режиссер спектакля - Наталья Рашевская.
Действие происходит накануне революции 1905 года. На фабрике Бардина стало особенно неспокойно. Директор фабрики, компаньон хозяина Скроботов, отвергает справедливые требования рабочих уволить жестокого мастера. В ответ на возмущение рабочих хозяева закрывают фабрику и вызывают солдат. Скроботов угрожает рабочим револьвером, и его убивают...





Источник: DVD9 R5
Качество видео: DVDRip
Формат видео: AVI
Видео: 576x432 (4:3), 25 fps, XviD ~ 914 kbps avg, 0.147 bit/pixel
Аудио: 48 kHz, MP3 2.0, 128 kbps
Раздача от:
Общее
Полное имя : Vragi.1953.DVDRip-745_[New-team]_by_AVP_Studio.avi
Формат : AVI
Формат/Информация : Audio Video Interleave
Размер файла : 1,09 Гбайт
Продолжительность : 2 ч. 28 м.
Общий поток : 1051 Кбит/сек
Программа кодирования : VirtualDubMod 1.5.10.3 | www.virtualdub-fr.org || (build 2550/release)
Библиотека кодирования : VirtualDubMod build 2550/release
Видео
Идентификатор : 0
Формат : MPEG-4 Visual
Профиль формата : Advanced Simple@L5
Параметр BVOP формата : 1
Параметр QPel формата : Нет
Параметр GMC формата : Без точки перехода
Параметр матрицы формата : Выборочная
Идентификатор кодека : XVID
Идентификатор кодека/Подсказка : XviD
Продолжительность : 2 ч. 28 м.
Битрейт : 914 Кбит/сек
Ширина : 576 пикселей
Высота : 432 пикселя
Соотношение сторон : 4:3
Частота кадров : 25,000 кадров/сек
Цветовое пространство : YUV
Субдискретизация насыщенности : 4:2:0
Битовая глубина : 8 бит
Тип развёртки : Прогрессивная
Метод сжатия : С потерями
Бит/(Пиксели*Кадры) : 0.147
Размер потока : 970 Мбайт (87%)
Библиотека кодирования : XviD 1.2.1 (UTC 2008-12-04)
Аудио
Идентификатор : 1
Формат : MPEG Audio
Версия формата : Version 1
Профиль формата : Layer 3
Идентификатор кодека : 55
Идентификатор кодека/Подсказка : MP3
Продолжительность : 2 ч. 28 м.
Вид битрейта : Постоянный
Битрейт : 128 Кбит/сек
Каналы : 2 канала
Частота : 48,0 КГц
Метод сжатия : С потерями
Размер потока : 136 Мбайт (12%)
Выравнивание : Соединение по промежуткам
Продолжительность промежутка : 40 мс. (1,00 видеокадр)
Время предзагрузки промежутка : 504 мс.
Библиотека кодирования : LAME3.99r
Настройки программы : -m s -V 4 -q 2 -lowpass 17 -b 128





   Похожие торренты   Торрент   Размер 
В этой теме нет новых непрочитанных сообщений. Враги (1953) DVDRip-AVC от New-Team

66 | 21

2.18 ГБ

В этой теме нет новых непрочитанных сообщений. Враги (1953) DVDRip от New-Team

14 | 9

2.18 ГБ

В этой теме нет новых непрочитанных сообщений. Чук и Гек (1953) DVDRip-AVC от New-Team

164 | 27

744.41 МБ

В этой теме нет новых непрочитанных сообщений. Чук и Гек (1953) DVDRip от New-Team

669 | 23

745.12 МБ

В этой теме нет новых непрочитанных сообщений. Варвары (1953) DVDRip от New-Team

18 | 10

1.46 ГБ

В этой теме нет новых непрочитанных сообщений. Варвары (1953) DVDRip от New-Team

15 | 8

2.18 ГБ

В этой теме нет новых непрочитанных сообщений. Нахлебник (1953) DVDRip от New-Team

27 | 9

1.46 ГБ




Вы не можете начинать темы
Вы не можете отвечать на сообщения
Вы не можете редактировать свои сообщения
Вы не можете удалять свои сообщения
Вы не можете добавлять вложения

Перейти:  
Для Мосгорсуда, Роскомнадзора и рекламодателей: mosgorsud-torrent[собачка]yandex.ru
 Вход
ppkBB3cker v.2 © 2008-2014 @ PPK
[ Time : 0.041s | 15 Queries | GZIP : On ]

Торрент трекер RUTOR.IN, Не можете зайти на rutor.org? Какой новый адрес рутор? Какое зеркало рутор? Не работает rutor.org и зеркала? Тогда наш торрент специально для вас. Rutor.in неофициальное зеркало rutor. В случае если у Вас заблокирован rutor или вдруг Вы не можете на него зайти, то Вы без труда сможете скачать бесплатно и без рекламы последние новинки кино, игр, сериалов и прочего у нас, на Rutor.in. Не нужно использовать прокси, чтобы зайти на рутор, достаточно воспользоваться нашим ресурсом. Все новые фильмы, игры, сериалы, книги и музыка за 2013 и 2014 годы через торрент бесплатно. Скачивайте фильмы в хорошем качестве, игры для пк, xbox, playstation без регистрации. У нас вы найдете новые Зарубежные сериалы и Русские сериалы 2013, 2014, 2015 годов. Оставайтесь с нами, качайте любимые фильмы, игры, сериалы, книги и музыку.