img image001 image001 image001 image001 image001 image001 image001 image001 image001 image001 image001 image001 image001 image001 image001

Planets Sun Sun Sun
Статистика раздачи
Автор: Nickolas3434 | Размер: 1.11 ГБ | Добавлен: 07 мар 2016
Раздают: 282    Качают: 12
Скачать торрент
Скачать торрент
Описание торрента

СообщениеДобавлено: 07 мар 2016 




Информация о фильме
Название: Соучастники
Год выхода: 2015
Жанр: Криминал, мелодрама
Режиссер: Роман Просвирнин
В ролях: Карина Разумовская, Дмитрий Миллер, Сергей Мухин, Елена Чернявская, Константин Соловьёв, Андрей Селиванов, Артём Фадеев, Евгения Каверау, Лариса Домаскина, Артём Банников, Елена Кожейкина
О фильме:
Ольга возвращается из командировки на день раньше и застает своего мужа Эдуарда в постели с учительницей их сына Жанной. После скандала Ольга выбегает из дома и натыкается во дворе на тело учительницы. Причины смерти Жанны неизвестны, но Эдуард уверен в одном: их семье не нужна огласка. Ведь он высокопоставленный чиновник мэрии, а их сын Арсений дружит с дочкой Жанны. Эдуард уговаривает Ольгу вывезти тело в город. Когда его найдут, никто не свяжет смерть женщины с их семьей. Однако, тело бесследно исчезает. И жизнь Эдуарда и Ольги, и без того отягченная изменой, превращается в ад. Весь город ищет Жанну, Ольгу мучают угрызения совести, сын начинает подозревать отца, арестовывают и обвиняют в убийстве невиновного, а тут еще Игорь, влюбленный в Ольгу, шантажирует ее и мужа. Ольга и Эдуард доведены до отчаяния и готовы признаться во всем, они не могут допустить, чтобы пострадал невиновный,… но тут рыбаки обнаруживают тело Жанны.

Страна: Россия
Студия: Кинокомпания Русское
Продолжительность: 01:32:10
Перевод: Не требуется
Файл
Кодек: MPEG-4 AVC
Качество: HDTVRip-AVC
Видео: 1024х576 (16:9), 25 fps, AVC MPEG-4 (x264), High@L4.1 ~1527 kbps
Звук: 48 kHz, AC3, 2 ch, 192 kbps


General
Unique ID : 233292306029925453034058607422174045603 (0xAF8276BB742E20CCBF85F6A0854AA5A3)
Complete name : C:UsersDoMiNoDesktopСоучастники.(2015).HDTVRIP_AVC.[-=DoMiNo=-].mkv
Format : Matroska
Format version : Version 4 / Version 2
File size : 1.11 GiB
Duration : 1h 32mn
Overall bit rate : 1 721 Kbps
Encoded date : UTC 2016-03-05 15:45:52
Writing application : mkvmerge v8.3.0 ('Over the Horizon') 64bit
Writing library : libebml v1.3.1 + libmatroska v1.4.2
Video
ID : 1
Format : AVC
Format/Info : Advanced Video Codec
Format profile : High@L4.1
Format settings, CABAC : Yes
Format settings, ReFrames : 10 frames
Codec ID : V_MPEG4/ISO/AVC
Duration : 1h 32mn
Bit rate : 1 527 Kbps
Width : 1 024 pixels
Height : 576 pixels
Display aspect ratio : 16:9
Frame rate mode : Constant
Frame rate : 25.000 fps
Color space : YUV
Chroma subsampling : 4:2:0
Bit depth : 8 bits
Scan type : Progressive
Bits/(Pixel*Frame) : 0.104
Stream size : 1 007 MiB (89%)
Writing library : x264 core 148 r2665M a01e339
Encoding settings : cabac=1 / ref=10 / deblock=1:-3:-3 / analyse=0x3:0x133 / me=umh / subme=10 / psy=1 / psy_rd=1.00:0.10 / mixed_ref=1 / me_range=32 / chroma_me=1 / trellis=2 / 8x8dct=1 / cqm=0 / deadzone=21,11 / fast_pskip=0 / chroma_qp_offset=-3 / threads=5 / lookahead_threads=1 / sliced_threads=0 / nr=0 / decimate=1 / interlaced=0 / bluray_compat=0 / constrained_intra=0 / bframes=9 / b_pyramid=2 / b_adapt=2 / b_bias=0 / direct=1 / weightb=1 / open_gop=0 / weightp=2 / keyint=250 / keyint_min=25 / scenecut=40 / intra_refresh=0 / rc=crf / mbtree=0 / crf=18.5 / qcomp=0.60 / qpmin=20 / qpmax=69 / qpstep=4 / ip_ratio=1.40 / pb_ratio=1.30 / aq=1:1.00
Default : Yes
Forced : No
Color range : Limited
Color primaries : BT.709
Transfer characteristics : BT.709
Matrix coefficients : BT.709
Audio
ID : 2
Format : AC-3
Format/Info : Audio Coding 3
Mode extension : CM (complete main)
Format settings, Endianness : Big
Codec ID : A_AC3
Duration : 1h 32mn
Bit rate mode : Constant
Bit rate : 192 Kbps
Channel(s) : 2 channels
Channel positions : Front: L R
Sampling rate : 48.0 KHz
Frame rate : 31.250 fps (1536 spf)
Compression mode : Lossy
Stream size : 127 MiB (11%)
Default : Yes
Forced : No







   Похожие торренты   Торрент   Размер 
В этой теме нет новых непрочитанных сообщений. Соучастники (2015) HDTVRip-AVC от Files-x

1328 | 74

1.37 ГБ

В этой теме нет новых непрочитанных сообщений. Соучастники (2015) HDTVRip от Шкипер

509 | 38

745.25 МБ

В этой теме нет новых непрочитанных сообщений. Соучастники (2015) HDTVRip от Files-x

2909 | 150

1.37 ГБ

В этой теме нет новых непрочитанных сообщений. Соучастники (2015) HDTVRip 720p от MediaClub

981 | 47

2.43 ГБ

В этой теме нет новых непрочитанных сообщений. Соучастники (2015) WEB-DLRip-AVC от Files-x

136 | 9

1.37 ГБ

В этой теме нет новых непрочитанных сообщений. Соучастники (2015) WEB-DLRip от Files-x

91 | 2

1.37 ГБ

В этой теме нет новых непрочитанных сообщений. Соучастники (1983) DVDRip от Pshichko66

73 | 21

1.46 ГБ




Вы не можете начинать темы
Вы не можете отвечать на сообщения
Вы не можете редактировать свои сообщения
Вы не можете удалять свои сообщения
Вы не можете добавлять вложения

Перейти:  
Для Мосгорсуда, Роскомнадзора и рекламодателей: mosgorsud-torrent[собачка]yandex.ru
 Вход
ppkBB3cker v.2 © 2008-2014 @ PPK
[ Time : 0.020s | 15 Queries | GZIP : Off ]

Торрент трекер RUTOR.IN, Не можете зайти на rutor.org? Какой новый адрес рутор? Какое зеркало рутор? Не работает rutor.org и зеркала? Тогда наш торрент специально для вас. Rutor.in неофициальное зеркало rutor. В случае если у Вас заблокирован rutor или вдруг Вы не можете на него зайти, то Вы без труда сможете скачать бесплатно и без рекламы последние новинки кино, игр, сериалов и прочего у нас, на Rutor.in. Не нужно использовать прокси, чтобы зайти на рутор, достаточно воспользоваться нашим ресурсом. Все новые фильмы, игры, сериалы, книги и музыка за 2013 и 2014 годы через торрент бесплатно. Скачивайте фильмы в хорошем качестве, игры для пк, xbox, playstation без регистрации. У нас вы найдете новые Зарубежные сериалы и Русские сериалы 2013, 2014, 2015 годов. Оставайтесь с нами, качайте любимые фильмы, игры, сериалы, книги и музыку.