img image001 image001 image001 image001 image001 image001 image001 image001 image001 image001 image001 image001 image001 image001 image001

Planets Sun Sun Sun
Статистика раздачи
Автор: Nickolas3434 | Размер: 2.9 ГБ | Добавлен: 08 мар 2016
Раздают: 529    Качают: 39
Скачать торрент
Скачать торрент
Описание торрента

СообщениеДобавлено: 08 мар 2016 


Информация о фильме
Название: Бумбараш
Год выхода: 1971
Жанр: Музыкальная трагикомедия
Режиссер: Николай Рашеев, Абрам Народицкий
В ролях: Валерий Золотухин, Юрий Смирнов, Наталья Дмитриева, Екатерина Васильева, Александр Хочинский, Александр Белина, Леонид Бакштаев, Лев Дуров, Роман Ткачук, Николай Дупак, Маргарита Криницына, Лев Перфилов, Александр Филиппенко, Юрий Шерстнев
О фильме:
"Наплявать, наплявать, надоело воевать! Были мы солдаты, а теперь - до хаты..." Рядовой Бумбараш возвращается с Первой мировой войны в родное село. Неунывающий солдат был по ошибке объявлен погибшим. Об этом он узнал, когда вернулся в родные места: его коня и телегу продали, а невесту Варьку отдали другому. Признавать живым его не хотят, так как деньги на панихиду уже истрачены, а нехитрое крестьянское имущество "позаимствовано" родным братом. Признал его только друг, надевший на картуз красную звезду и уверенный в том, что после победы революции на каждую семью будет по дворцу. Но "чай с лимоном на балконе" сразу не завоюешь, а в стране тем временем полная неразбериха - красные, белые, зеленые, бандиты, анархисты. А жить очень хочется...
Страна: СССР
Продолжительность: 02:06:31 (01:03:34 + 01:02:57)
Перевод: не требуется
Файл
Кодек: x264
Качество: DVDRip-AVC
Видео: MPEG-4, 2650 Кбит/с, [email protected]
Звук: AC3, 6 ch, 384 Кбит/с, AC3, 2 ch, 224 Кбит/с

x264 [info]: frame I:510 Avg QP:15.61 size: 89505
x264 [info]: frame P:21976 Avg QP:19.03 size: 30848
x264 [info]: frame B:72864 Avg QP:21.43 size: 7573
x264 [info]: consecutive B-frames: 1.9% 3.0% 9.1% 24.5% 26.7% 30.6% 3.2% 0.9% 0.2%
===============================================================================================================
Общее
Уникальный идентификатор : 172812619933052430688787952043251333559 (0x82027FFCB43BDEBAA15829822F89F9B7)
Полное имя : R:МОИ РИПЫБумбараш_1971-DVDRip-AVCБумбараш-1.mkv
Формат : Matroska
Версия формата : Version 2
Размер файла : 1,46 Гбайт
Продолжительность : 1 ч. 3 м.
Общий поток : 3285 Кбит/сек
Дата кодирования : UTC 2016-03-06 18:55:26
Программа кодирования : mkvmerge v5.8.0 ('No Sleep / Pillow') built on Sep 2 2012 15:37:04
Библиотека кодирования : libebml v1.2.3 + libmatroska v1.3.0
Видео
Идентификатор : 1
Формат : AVC
Формат/Информация : Advanced Video Codec
Профиль формата : High@L4.1
Параметр CABAC формата : Да
Параметр ReFrames формата : 15 кадров
Идентификатор кодека : V_MPEG4/ISO/AVC
Битрейт : 2675 Кбит/сек
Ширина : 704 пикселя
Высота : 574 пикселя
Соотношение сторон : 4:3
Соотношение сторон в оригинале : 4:3
Режим частоты кадров : Переменный
Частота кадров в оригинале : 25,000 кадров/сек
Цветовое пространство : YUV
Субдискретизация насыщенности : 4:2:0
Битовая глубина : 8 бит
Тип развёртки : Прогрессивная
Бит/(Пиксели*Кадры) : 0.265
Библиотека кодирования : x264 core 148 r2638 7599210
Настройки программы : cabac=1 / ref=15 / deblock=1:-2:-2 / analyse=0x3:0x133 / me=umh / subme=10 / psy=1 / psy_rd=1.05:0.13 / mixed_ref=1 / me_range=32 / chroma_me=1 / trellis=2 / 8x8dct=1 / cqm=0 / deadzone=21,11 / fast_pskip=0 / chroma_qp_offset=-3 / threads=12 / lookahead_threads=2 / sliced_threads=0 / nr=0 / decimate=0 / interlaced=0 / bluray_compat=0 / constrained_intra=0 / bframes=8 / b_pyramid=2 / b_adapt=2 / b_bias=0 / direct=3 / weightb=1 / open_gop=0 / weightp=2 / keyint=250 / keyint_min=25 / scenecut=40 / intra_refresh=0 / rc=2pass / mbtree=0 / bitrate=2675 / ratetol=1.0 / qcomp=0.63 / qpmin=0 / qpmax=39 / qpstep=4 / cplxblur=20.0 / qblur=0.5 / ip_ratio=1.40 / pb_ratio=1.30 / aq=1:1.00
Язык : English
Default : Да
Forced : Нет
Основные цвета : BT.601 PAL
Характеристики трансфера : BT.470 System B, BT.470 System G
Коэффициенты матрицы : BT.601
Аудио #1
Идентификатор : 2
Формат : AC-3
Формат/Информация : Audio Coding 3
Расширение режима : CM (complete main)
Параметр Endianness формата : Big
Идентификатор кодека : A_AC3
Продолжительность : 1 ч. 3 м.
Вид битрейта : Постоянный
Битрейт : 384 Кбит/сек
Каналы : 6 каналов
Расположение каналов : Front: L C R, Side: L R, LFE
Частота : 48,0 КГц
Битовая глубина : 16 бит
Метод сжатия : С потерями
Размер потока : 175 Мбайт (12%)
Язык : Russian
Default : Да
Forced : Нет
Аудио #2
Идентификатор : 3
Формат : AC-3
Формат/Информация : Audio Coding 3
Расширение режима : CM (complete main)
Параметр Endianness формата : Big
Идентификатор кодека : A_AC3
Продолжительность : 1 ч. 3 м.
Вид битрейта : Постоянный
Битрейт : 224 Кбит/сек
Каналы : 2 канала
Расположение каналов : Front: L R
Частота : 48,0 КГц
Битовая глубина : 16 бит
Метод сжатия : С потерями
Размер потока : 102 Мбайт (7%)
Язык : Russian
Default : Нет
Forced : Нет

Релиз от:
Автор релиза:



   Похожие торренты   Торрент   Размер 
В этой теме нет новых непрочитанных сообщений. Бумбараш (1971) DVDRip от Youtracker

21 | 6

2.18 ГБ

В этой теме нет новых непрочитанных сообщений. Бумбараш (1971) DVDRip-AVC от Youtracker

44 | 18

2.19 ГБ

В этой теме нет новых непрочитанных сообщений. Бумбараш (1971) DVDRip от Youtracker

52 | 12

1.46 ГБ

В этой теме нет новых непрочитанных сообщений. 12 стульев (1971) DVDRip-AVC от ExKinoRay

917 | 62

3.7 ГБ

В этой теме нет новых непрочитанных сообщений. Дьяволы / The Devils (1971) DVDRip от ExKinoRay

16 | 30

1.37 ГБ

В этой теме нет новых непрочитанных сообщений. Освобождение [01-05 из 05] (1968-1971) DVDRip-AVC от ExKinoRay

243 | 50

7.92 ГБ

В этой теме нет новых непрочитанных сообщений. Цеппелин / Zeppelin (1971) DVDRip - ExKinoRay

0 | 3

1.38 ГБ




Вы не можете начинать темы
Вы не можете отвечать на сообщения
Вы не можете редактировать свои сообщения
Вы не можете удалять свои сообщения
Вы не можете добавлять вложения

Перейти:  
Для Мосгорсуда, Роскомнадзора и рекламодателей: mosgorsud-torrent[собачка]yandex.ru
 Вход
ppkBB3cker v.2 © 2008-2014 @ PPK
[ Time : 0.027s | 14 Queries | GZIP : Off ]

Торрент трекер RUTOR.IN, Не можете зайти на rutor.org? Какой новый адрес рутор? Какое зеркало рутор? Не работает rutor.org и зеркала? Тогда наш торрент специально для вас. Rutor.in неофициальное зеркало rutor. В случае если у Вас заблокирован rutor или вдруг Вы не можете на него зайти, то Вы без труда сможете скачать бесплатно и без рекламы последние новинки кино, игр, сериалов и прочего у нас, на Rutor.in. Не нужно использовать прокси, чтобы зайти на рутор, достаточно воспользоваться нашим ресурсом. Все новые фильмы, игры, сериалы, книги и музыка за 2013 и 2014 годы через торрент бесплатно. Скачивайте фильмы в хорошем качестве, игры для пк, xbox, playstation без регистрации. У нас вы найдете новые Зарубежные сериалы и Русские сериалы 2013, 2014, 2015 годов. Оставайтесь с нами, качайте любимые фильмы, игры, сериалы, книги и музыку.