img image001 image001 image001 image001 image001 image001 image001 image001 image001 image001 image001 image001 image001 image001 image001

Planets Sun Sun Sun
Статистика раздачи
Автор: Nickolas3434 | Размер: 1.45 ГБ | Добавлен: 11 мар 2016
Раздают: 100    Качают: 6
Скачать торрент
Скачать торрент
Описание торрента

СообщениеДобавлено: 11 мар 2016 


Страна: СССР
Жанр: мелодрама, комедия
Год выпуска: 1980
Продолжительность: 01:13:35


Перевод: Не требуется
Режиссер: Юрий Егоров
В ролях:

Наталья Гундарева (Надя Круглова), Виктор Проскурин (Кирилл Круглов, муж Нади), Евгений Лазарев (одноклассник Вишневский Юрий, кандидат психологических наук), Олег Ефремов (художник Илья Николаевич), Валентина Титова (одноклассница Леночка Амосова, астроном), Ольга Гобзева (одноклассница, поэтесса), Александр Потапов (одноклассник Валера), Игорь Ясулович (одноклассник Толя Клинков, капитан 2-го ранга), Валентин Смирнитский (одноклассник Коля), Инга Будкевич (директор магазина), Марина Яковлева (Наташа Круглова, старшая дочь), Сергей Белов (Круглов, сын)


Описание: Выпускники одной из московских школ через двадцать лет после окончания собираются вместе. Каждого просят ответить на два вопроса: «Что вы уже сделали?» и «Чего еще в жизни ждете?». Вместе с бывшими однокашниками пытается найти ответы на поставленные вопросы и главная героиня фильма - многодетная мать Надя Круглова.





Качество: WEB-DLRip
Контейнер: AVI
Видео: XviD, 704x304 (2.35:1), 2366 kbps, 25 fps, 0,442 bpp
Аудио: AC3 / 5.1 / 48 kHz / 448 kbps / 16 bit
Раздача от:



General
Complete name : F:OdnazhdI.20.let.spustia.WEBDLRip.by.NewTeam.avi
Format : AVI
Format/Info : Audio Video Interleave
File size : 1.45 GiB
Duration : 1h 13mn
Overall bit rate : 2 824 Kbps
Writing application : VirtualDubMod 1.5.10.3 | www.virtualdub-fr.org || (build 2550/release)
Writing library : VirtualDubMod build 2550/release
Video
ID : 0
Format : MPEG-4 Visual
Format profile : Advanced Simple@L5
Format settings, BVOP : 1
Format settings, QPel : No
Format settings, GMC : No warppoints
Format settings, Matrix : Custom
Muxing mode : Packed bitstream
Codec ID : XVID
Codec ID/Hint : XviD
Duration : 1h 13mn
Bit rate : 2 367 Kbps
Width : 704 pixels
Height : 304 pixels
Display aspect ratio : 2.35:1
Frame rate : 25.000 fps
Color space : YUV
Chroma subsampling : 4:2:0
Bit depth : 8 bits
Scan type : Progressive
Compression mode : Lossy
Bits/(Pixel*Frame) : 0.442
Stream size : 1.22 GiB (84%)
Writing library : XviD 73
Audio
ID : 1
Format : AC-3
Format/Info : Audio Coding 3
Mode extension : CM (complete main)
Codec ID : 2000
Duration : 1h 13mn
Bit rate mode : Constant
Bit rate : 448 Kbps
Channel(s) : 6 channels
Channel positions : Front: L C R, Side: L R, LFE
Sampling rate : 48.0 KHz
Bit depth : 16 bits
Compression mode : Lossy
Stream size : 236 MiB (16%)
Alignment : Split accross interleaves
Interleave, duration : 40 ms (1.00 video frame)
Interleave, preload duration : 500 ms



   Похожие торренты   Торрент   Размер 
В этой теме нет новых непрочитанных сообщений. Однажды двадцать лет спустя (1980) DVDRip от New-Team

53 | 25

1.46 ГБ

В этой теме нет новых непрочитанных сообщений. Однажды двадцать лет спустя (1980) DVD9 R5 от New-Team

99 | 9

5.78 ГБ

В этой теме нет новых непрочитанных сообщений. Однажды двадцать лет спустя (1980) DVDRip-AVC от New-Team

219 | 16

1.46 ГБ

В этой теме нет новых непрочитанных сообщений. Однажды двадцать лет спустя (1980) WEB-DL 720p от New Team

130 | 20

2.27 ГБ

В этой теме нет новых непрочитанных сообщений. Однажды двадцать лет спустя (1980) DVD5 от New-Team | сжатый

113 | 5

4.33 ГБ

В этой теме нет новых непрочитанных сообщений. Однажды двадцать лет спустя (1980) WEB-DLRip-AVC от ExKinoRay

43 | 4

1.31 ГБ

В этой теме нет новых непрочитанных сообщений. Однажды двадцать лет спустя (1980) DVDRip

121 | 11

1.37 ГБ




Вы не можете начинать темы
Вы не можете отвечать на сообщения
Вы не можете редактировать свои сообщения
Вы не можете удалять свои сообщения
Вы не можете добавлять вложения

Перейти:  
Для Мосгорсуда, Роскомнадзора и рекламодателей: mosgorsud-torrent[собачка]yandex.ru
 Вход
ppkBB3cker v.2 © 2008-2014 @ PPK
[ Time : 0.031s | 15 Queries | GZIP : On ]

Торрент трекер RUTOR.IN, Не можете зайти на rutor.org? Какой новый адрес рутор? Какое зеркало рутор? Не работает rutor.org и зеркала? Тогда наш торрент специально для вас. Rutor.in неофициальное зеркало rutor. В случае если у Вас заблокирован rutor или вдруг Вы не можете на него зайти, то Вы без труда сможете скачать бесплатно и без рекламы последние новинки кино, игр, сериалов и прочего у нас, на Rutor.in. Не нужно использовать прокси, чтобы зайти на рутор, достаточно воспользоваться нашим ресурсом. Все новые фильмы, игры, сериалы, книги и музыка за 2013 и 2014 годы через торрент бесплатно. Скачивайте фильмы в хорошем качестве, игры для пк, xbox, playstation без регистрации. У нас вы найдете новые Зарубежные сериалы и Русские сериалы 2013, 2014, 2015 годов. Оставайтесь с нами, качайте любимые фильмы, игры, сериалы, книги и музыку.