img image001 image001 image001 image001 image001 image001 image001 image001 image001 image001 image001 image001 image001 image001 image001

Planets Sun Sun Sun
Статистика раздачи
Автор: Nickolas3434 | Размер: 1.46 ГБ | Добавлен: 15 мар 2016
Раздают: 96    Качают: 14
Скачать торрент
Скачать торрент
Описание торрента

СообщениеДобавлено: 15 мар 2016 


Информация о фильме
Название: Шик
Год выхода: 2003
Жанр: драма, комедия
Режиссер: Бахтиер Худойназаров
В ролях: Иван Кокорин, Александр Яценко, Артур Смольянинов, Ингеборга Дапкунайте, Андрей Панин, Николай Фоменко, Елена Дробышева, Евгений Воскресенский, Татьяна Бурнакина, Сергей Санаев, Сергей Апрельский, Виталий Альшанский, Александр Донской, Борис Некрасов, Игорь Письменный, Ольга Лукашевич, Андрей Яценко, Светлана Глинка, Ирина Демидкина, Евгений Журавкин, Аброр Бакиров, Инна Сухарева, Светлана Рунцова, Светлана Силкина, Руслана Рухадзе
О фильме:
Неподалеку от большого портового города жили-были три закадычных друга, ребята из бедных семей. Заглядываясь на роскошные витрины дорогих магазинов и проплывающие мимо них огромные корабли, они мечтали о таком же богатстве и счастье. И вот однажды друзья увидели в модном «бутике» костюм от «Гуччи» — само воплощение крутости и шика.
Всеми правдами и неправдами они скопили на него деньги и попытались с его помощью добиться успеха в жизни. Однако ни счастья, ни богатства «обновка» им не принесла — напротив, ободренные первой удачей, ребята навлекли на свою голову большие беды…


Страна: Россия, Германия, Франция, Италия, Украина
Студия: Централ Партнершип, Orly Films, Pandora Filmproduktion GmbH
Продолжительность: 01:32:15
Перевод: Не требуется
Файл
Кодек: x264
Качество: DVDRip-AVC
Видео: 704x340 (2,462), 29,970 fps, x264 ~2012 kbps avg, 0.280 bit/pixel
Звук: 48 kHz, Audio Coding 3, 6 ch, Front: L C R, Side: L R, LFE, ~256 kbps avg
Субтитры: Отсутствуют
Формат : Matroska
Версия формата : Version 4 / Version 2
Размер файла : 1,46 Гбайт
Продолжительность : 1 ч. 32 м.
Общий поток : 2270 Кбит/сек
Название фильма : by sergey07
Дата кодирования : UTC 2016-03-14 15:47:04
Программа кодирования : mkvmerge v7.6.0 ('Garden of Dreams') 64bit built on Feb 8 2015 13:04:34
Библиотека кодирования : libebml v1.3.1 + libmatroska v1.4.2
DURATION : 01:32:15.520000000
NUMBER_OF_FRAMES : 172985
NUMBER_OF_BYTES : 177136640
_STATISTICS_WRITING_APP : mkvmerge v7.6.0 ('Garden of Dreams') 64bit built on Feb 8 2015 13:04:34
_STATISTICS_WRITING_DATE_UTC : 2016-03-14 15:47:04
_STATISTICS_TAGS : BPS DURATION NUMBER_OF_FRAMES NUMBER_OF_BYTES
Видео
Идентификатор : 1
Формат : AVC
Формат/Информация : Advanced Video Codec
Профиль формата : High@L4.1
Параметр CABAC формата : Да
Параметр ReFrames формата : 14 кадров
Идентификатор кодека : V_MPEG4/ISO/AVC
Продолжительность : 1 ч. 32 м.
Битрейт : 2012 Кбит/сек
Ширина : 704 пикселя
Высота : 340 пикселей
Соотношение сторон : 2,462
Соотношение сторон в оригинале : 2,461
Режим частоты кадров : Постоянный
Частота кадров : 29,970 кадров/сек
Цветовое пространство : YUV
Субдискретизация насыщенности : 4:2:0
Битовая глубина : 8 бит
Тип развёртки : Прогрессивная
Бит/(Пиксели*Кадры) : 0.280
Размер потока : 1,27 Гбайт (87%)
Библиотека кодирования : x264 core 142 r2431 ac76440
Настройки программы : cabac=1 / ref=14 / deblock=1:-3:-3 / analyse=0x3:0x113 / me=umh / subme=11 / psy=1 / psy_rd=1.00:0.00 / mixed_ref=1 / me_range=32 / chroma_me=1 / trellis=2 / 8x8dct=1 / cqm=0 / deadzone=21,11 / fast_pskip=1 / chroma_qp_offset=-4 / threads=12 / lookahead_threads=2 / sliced_threads=0 / nr=0 / decimate=1 / interlaced=0 / bluray_compat=0 / constrained_intra=0 / bframes=11 / b_pyramid=2 / b_adapt=2 / b_bias=0 / direct=1 / weightb=1 / open_gop=0 / weightp=2 / keyint=300 / keyint_min=29 / scenecut=40 / intra_refresh=0 / rc_lookahead=40 / rc=2pass / mbtree=1 / bitrate=2012 / ratetol=1.0 / qcomp=0.70 / qpmin=1 / qpmax=69 / qpstep=4 / cplxblur=20.0 / qblur=0.5 / vbv_maxrate=50000 / vbv_bufsize=62500 / nal_hrd=none / filler=0 / ip_ratio=1.40 / aq=1:1.00
Язык : Russian
Default : Да
Forced : Нет
Аудио
Идентификатор : 2
Формат : AC-3
Формат/Информация : Audio Coding 3
Расширение режима : CM (complete main)
Параметр Endianness формата : Big
Идентификатор кодека : A_AC3
Продолжительность : 1 ч. 32 м.
Вид битрейта : Постоянный
Битрейт : 256 Кбит/сек
Каналы : 6 каналов
Расположение каналов : Front: L C R, Side: L R, LFE
Частота : 48,0 КГц
Битовая глубина : 16 бит
Метод сжатия : С потерями
Размер потока : 169 Мбайт (11%)
Язык : Russian
Default : Да
Forced : Нет
x264 [info]: using SAR=18615/15664
x264 [info]: using cpu capabilities: MMX2 SSE2Fast SSSE3 SSE4.2 AVX AVX2 FMA3 LZCNT BMI2
x264 [info]: profile High, level 4.1
x264 [info]: frame I:674 Avg QP:21.87 size: 38814
x264 [info]: frame P:35918 Avg QP:24.53 size: 15966
x264 [info]: frame B:129310 Avg QP:27.97 size: 6129
x264 [info]: consecutive B-frames: 1.7% 2.2% 6.8% 21.9% 10.3% 55.9% 0.7% 0.2% 0.1% 0.0% 0.0% 0.1%
x264 [info]: mb I I16..4: 5.3% 74.7% 19.9%
x264 [info]: mb P I16..4: 0.8% 11.7% 3.0% P16..4: 32.1% 35.7% 11.8% 0.0% 0.0% skip: 5.1%
x264 [info]: mb B I16..4: 0.1% 1.6% 0.6% B16..8: 31.9% 19.2% 3.7% direct:10.1% skip:32.9% L0:36.8% L1:42.0% BI:21.1%
x264 [info]: 8x8 transform intra:73.2% inter:69.5%
x264 [info]: coded y,uvDC,uvAC intra: 84.7% 77.6% 39.6% inter: 32.8% 18.7% 2.4%
x264 [info]: i16 v,h,dc,p: 18% 51% 3% 28%
x264 [info]: i8 v,h,dc,ddl,ddr,vr,hd,vl,hu: 14% 10% 6% 8% 12% 12% 13% 10% 16%
x264 [info]: i4 v,h,dc,ddl,ddr,vr,hd,vl,hu: 33% 29% 4% 3% 6% 5% 7% 4% 8%
x264 [info]: i8c dc,h,v,p: 27% 31% 21% 20%
x264 [info]: Weighted P-Frames: Y:10.6% UV:2.3%
x264 [info]: ref P L0: 39.8% 14.3% 19.2% 6.7% 4.7% 3.4% 3.0% 1.6% 1.6% 1.3% 1.2% 1.0% 1.1% 1.0% 0.3% 0.0%
x264 [info]: ref B L0: 78.0% 10.2% 4.9% 2.0% 1.1% 1.1% 0.8% 0.5% 0.4% 0.4% 0.3% 0.2% 0.2%
x264 [info]: ref B L1: 96.5% 3.5%
x264 [info]: kb/s:2011.88

Релиз от:



   Похожие торренты   Торрент   Размер 
В этой теме нет новых непрочитанных сообщений. Rammstein - Lichtspielhaus 2003. Видеоклипы (2003) DVDRip

25 | 7

1.18 ГБ

В этой теме нет новых непрочитанных сообщений. Бен-Гур / Ben Hur (2003) DVDRip

62 | 19

1.4 ГБ

В этой теме нет новых непрочитанных сообщений. Кое-что ещё / Anything Else (2003) DVDRip

235 | 32

2.19 ГБ

В этой теме нет новых непрочитанных сообщений. 2+1=… (2003) DVDRip

0 | 4

51.95 МБ

В этой теме нет новых непрочитанных сообщений. OST - Лицо со Шрамом / Scarface [Original Mix & 2003 Remix] (2003) FLAC

9 | 3

480.37 МБ

В этой теме нет новых непрочитанных сообщений. КВН 2003. Высшая лига. Все игры сезона (2003) SATRip

22 | 77

8.67 ГБ

В этой теме нет новых непрочитанных сообщений. Как бы не так (2003) DVDRip от Кинорадиомагия

231 | 13

1.37 ГБ




Вы не можете начинать темы
Вы не можете отвечать на сообщения
Вы не можете редактировать свои сообщения
Вы не можете удалять свои сообщения
Вы не можете добавлять вложения

Перейти:  
Для Мосгорсуда, Роскомнадзора и рекламодателей: mosgorsud-torrent[собачка]yandex.ru
 Вход
ppkBB3cker v.2 © 2008-2014 @ PPK
[ Time : 0.021s | 14 Queries | GZIP : Off ]

Торрент трекер RUTOR.IN, Не можете зайти на rutor.org? Какой новый адрес рутор? Какое зеркало рутор? Не работает rutor.org и зеркала? Тогда наш торрент специально для вас. Rutor.in неофициальное зеркало rutor. В случае если у Вас заблокирован rutor или вдруг Вы не можете на него зайти, то Вы без труда сможете скачать бесплатно и без рекламы последние новинки кино, игр, сериалов и прочего у нас, на Rutor.in. Не нужно использовать прокси, чтобы зайти на рутор, достаточно воспользоваться нашим ресурсом. Все новые фильмы, игры, сериалы, книги и музыка за 2013 и 2014 годы через торрент бесплатно. Скачивайте фильмы в хорошем качестве, игры для пк, xbox, playstation без регистрации. У нас вы найдете новые Зарубежные сериалы и Русские сериалы 2013, 2014, 2015 годов. Оставайтесь с нами, качайте любимые фильмы, игры, сериалы, книги и музыку.