img image001 image001 image001 image001 image001 image001 image001 image001 image001 image001 image001 image001 image001 image001 image001

Planets Sun Sun Sun
Статистика раздачи
Автор: Nickolas3434 | Размер: 742.63 МБ | Добавлен: 17 мар 2016
Раздают: 18    Качают: 21
Скачать торрент
Скачать торрент
Описание торрента

СообщениеДобавлено: 17 мар 2016 

Страна: СССР
Производство: Ленфильм
Жанр: драма
Год выпуска: 1953
Продолжительность: 01:24:24
Перевод: Не требуется
Cубтитры: нет
Оригинальная аудиодорожка: русский
Режиссер: Иосиф Хейфиц, Надежда Кошеверова
В ролях:
Галина Короткевич, Владимир Петров, Юрий Бубликов, Анатолий Кузнецов (II), Владимир Таскин, Георгий Анчиц, Лев Шостак, Людмила Пономарёва, Анатолий Абрамов, Александра Тришко, Николай Лукинов, Сабина Суйковская...
Полный список актёров
Описание:
Фильм-спектакль по одноименной пьесе Виктора Гусева.
Постановка Ленинградского Нового театра. Режиссер и художник спектакля - Николай Акимов. Действие пьесы, написанной в 1941 году, перенесено в начало пятидесятых годов.
Молодой историк Надежда Коврова, блистательно завершив первую работу, отвернувшись от друзей, сразу же пишет следующую. Ее постигает неудача. Тяжело пережив свое поражение, героиня находит поддержку у коллектива.



Источник: DVD9 R5
Качество видео: DVDRip
Формат видео: AVI
Видео: 576x432 (4:3), 25 fps, XviD ~ 876 kbps avg, 0.141 bit/pixel
Аудио: 48 kHz, MP3 2.0, 128 kbps
Раздача от:
Общее
Полное имя : Vesna.v.Moskve.1953.DVDRip-745_[New-team]_by_AVP_Studio.avi
Формат : AVI
Формат/Информация : Audio Video Interleave
Размер файла : 743 Мбайт
Продолжительность : 1 ч. 42 м.
Общий поток : 1014 Кбит/сек
Программа кодирования : VirtualDubModRus 1.5.10.2 (build 2542/release)
Библиотека кодирования : VirtualDubMod build 2542/release
Видео
Идентификатор : 0
Формат : MPEG-4 Visual
Профиль формата : Advanced Simple@L5
Параметр BVOP формата : 1
Параметр QPel формата : Нет
Параметр GMC формата : Без точки перехода
Параметр матрицы формата : Выборочная
Идентификатор кодека : XVID
Идентификатор кодека/Подсказка : XviD
Продолжительность : 1 ч. 42 м.
Битрейт : 876 Кбит/сек
Ширина : 576 пикселей
Высота : 432 пикселя
Соотношение сторон : 4:3
Частота кадров : 25,000 кадров/сек
Цветовое пространство : YUV
Субдискретизация насыщенности : 4:2:0
Битовая глубина : 8 бит
Тип развёртки : Прогрессивная
Метод сжатия : С потерями
Бит/(Пиксели*Кадры) : 0.141
Размер потока : 642 Мбайт (86%)
Библиотека кодирования : XviD 1.2.1 (UTC 2008-12-04)
Аудио
Идентификатор : 1
Формат : MPEG Audio
Версия формата : Version 1
Профиль формата : Layer 3
Идентификатор кодека : 55
Идентификатор кодека/Подсказка : MP3
Продолжительность : 1 ч. 42 м.
Вид битрейта : Постоянный
Битрейт : 128 Кбит/сек
Каналы : 2 канала
Частота : 48,0 КГц
Метод сжатия : С потерями
Размер потока : 93,7 Мбайт (13%)
Выравнивание : Соединение по промежуткам
Продолжительность промежутка : 40 мс. (1,00 видеокадр)
Время предзагрузки промежутка : 504 мс





   Похожие торренты   Торрент   Размер 
В этой теме нет новых непрочитанных сообщений. Весна в Москве (1953) DVDRip от New-Team

33 | 4

1.08 ГБ

В этой теме нет новых непрочитанных сообщений. Весна в Москве (1953) DVDRip-AVC от New-Team

113 | 9

1.08 ГБ

В этой теме нет новых непрочитанных сообщений. Весна в Москве (1953) DVDRip от Кинорадиомагия

191 | 46

1.36 ГБ

В этой теме нет новых непрочитанных сообщений. Весна (1947) DVDRip от New-Team

50 | 4

1.46 ГБ

В этой теме нет новых непрочитанных сообщений. Весна (1947) DVDRip от New-Team

64 | 14

745.48 МБ

В этой теме нет новых непрочитанных сообщений. Весна (1947) DVDRip-AVC от New-Team

183 | 25

1.46 ГБ

В этой теме нет новых непрочитанных сообщений. Голубая весна / Синяя весна / Aoi haru / Blue Spring (2001) DVDRip | SUB

0 | 2

700.41 МБ




Вы не можете начинать темы
Вы не можете отвечать на сообщения
Вы не можете редактировать свои сообщения
Вы не можете удалять свои сообщения
Вы не можете добавлять вложения

Перейти:  
Для Мосгорсуда, Роскомнадзора и рекламодателей: mosgorsud-torrent[собачка]yandex.ru
 Вход
ppkBB3cker v.2 © 2008-2014 @ PPK
[ Time : 0.076s | 15 Queries | GZIP : Off ]

Торрент трекер RUTOR.IN, Не можете зайти на rutor.org? Какой новый адрес рутор? Какое зеркало рутор? Не работает rutor.org и зеркала? Тогда наш торрент специально для вас. Rutor.in неофициальное зеркало rutor. В случае если у Вас заблокирован rutor или вдруг Вы не можете на него зайти, то Вы без труда сможете скачать бесплатно и без рекламы последние новинки кино, игр, сериалов и прочего у нас, на Rutor.in. Не нужно использовать прокси, чтобы зайти на рутор, достаточно воспользоваться нашим ресурсом. Все новые фильмы, игры, сериалы, книги и музыка за 2013 и 2014 годы через торрент бесплатно. Скачивайте фильмы в хорошем качестве, игры для пк, xbox, playstation без регистрации. У нас вы найдете новые Зарубежные сериалы и Русские сериалы 2013, 2014, 2015 годов. Оставайтесь с нами, качайте любимые фильмы, игры, сериалы, книги и музыку.