img image001 image001 image001 image001 image001 image001 image001 image001 image001 image001 image001 image001 image001 image001 image001

Planets Sun Sun Sun
Статистика раздачи
Автор: Nickolas3434 | Размер: 1.91 ГБ | Добавлен: 21 мар 2016
Раздают: 26    Качают: 4
Скачать торрент
Скачать торрент
Описание торрента

СообщениеДобавлено: 21 мар 2016 


Информация о фильме
Название: Запасной игрок
Год выхода: 1954
Жанр: Комедия
Режиссер: Семён Тимошенко
В ролях: Георгий Вицин, Павел Кадочников, Татьяна Конюхова, Всеволод Кузнецов, Гликерия Богданова-Чеснокова, Сергей Филиппов, Анатолий Кузнецов, Валентина Ушакова, Марк Бернес, Константин Адашевский, Мария Миронова ст., Елена Тяпкина, Владимир Белокуров, Эльвира Луценко, Александр Жуков, Павел Поль, Исай Гуров, Борис Коковкин, Анатолий Королькевич, Александр Орлов (II), Андрей Тутышкин, Лев Лобов, Феликс Яворский, Николай Рыбников, Ян Янакиев, Николай Трофимов, Анатолий Дудоров, Екатерина Александровская, Виктор Набутов, Иван Лапиков
О фильме:
Заводская команда «Синих Стрел» выходит в финал и отправляется на теплоходе в Сухуми для встречи с «Вымпелом», считающимся фаворитом. Но прежде чем матч состоится, героям фильма предстоит пережить множество приключений.
Страна: СССР, Ленфильм
Продолжительность: 01:18:07
Перевод: не требуется
Файл
Кодек: x264
Качество: DVDRip-AVC
Видео: MPEG-4 AVC, 2850 Кбит/с, [email protected]
Звук: AC3, 6 ch, 448 Кбит/с, AC3, 2 ch, 192 Кбит/с

raw [info]: 706x546p 16:15 @ 25/1 fps (cfr)
x264 [info]: using SAR=16/15
x264 [info]: using cpu capabilities: MMX2 SSE2Fast SSSE3 SSE4.2 AVX
x264 [info]: profile High, level 4.1
x264 [info]: frame I:576 Avg QP:17.93 size: 59323
x264 [info]: frame P:31605 Avg QP:20.07 size: 29794
x264 [info]: frame B:85004 Avg QP:22.16 size: 8170
================================================================================================================
Общее
Уникальный идентификатор : 236074847641224084104769672059242253727 (0xB19A5CA029A66B1CA0A430AD89CD8D9F)
Полное имя : D:Запасной игрок_1954-DVDRip-AVC.mkv
Формат : Matroska
Версия формата : Version 2
Размер файла : 1,91 Гбайт
Продолжительность : 1 ч. 18 м.
Общий поток : 3493 Кбит/сек
Дата кодирования : UTC 2016-03-19 03:38:39
Программа кодирования : mkvmerge v5.8.0 ('No Sleep / Pillow') built on Sep 2 2012 15:37:04
Библиотека кодирования : libebml v1.2.3 + libmatroska v1.3.0
Видео
Идентификатор : 1
Формат : AVC
Формат/Информация : Advanced Video Codec
Профиль формата : High@L4.1
Параметр CABAC формата : Да
Параметр ReFrames формата : 15 кадров
Идентификатор кодека : V_MPEG4/ISO/AVC
Продолжительность : 1 ч. 18 м.
Битрейт : 2850 Кбит/сек
Ширина : 706 пикселей
Высота : 546 пикселей
Соотношение сторон : 1,379
Режим частоты кадров : Постоянный
Частота кадров : 25,000 кадров/сек
Цветовое пространство : YUV
Субдискретизация насыщенности : 4:2:0
Битовая глубина : 8 бит
Тип развёртки : Прогрессивная
Бит/(Пиксели*Кадры) : 0.296
Размер потока : 1,52 Гбайт (80%)
Библиотека кодирования : x264 core 148 r2638 7599210
Настройки программы : cabac=1 / ref=15 / deblock=1:2:-2 / analyse=0x3:0x133 / me=umh / subme=10 / psy=1 / psy_rd=1.05:0.15 / mixed_ref=1 / me_range=32 / chroma_me=1 / trellis=2 / 8x8dct=1 / cqm=0 / deadzone=21,11 / fast_pskip=0 / chroma_qp_offset=-3 / threads=12 / lookahead_threads=2 / sliced_threads=0 / nr=0 / decimate=0 / interlaced=0 / bluray_compat=0 / constrained_intra=0 / bframes=8 / b_pyramid=2 / b_adapt=2 / b_bias=0 / direct=3 / weightb=1 / open_gop=0 / weightp=2 / keyint=250 / keyint_min=25 / scenecut=40 / intra_refresh=0 / rc=2pass / mbtree=0 / bitrate=2850 / ratetol=1.0 / qcomp=0.63 / qpmin=0 / qpmax=39 / qpstep=4 / cplxblur=20.0 / qblur=0.5 / ip_ratio=1.25 / pb_ratio=1.30 / aq=2:1.00
Язык : English
Default : Да
Forced : Нет
Основные цвета : BT.601 PAL
Характеристики трансфера : BT.470 System B, BT.470 System G
Коэффициенты матрицы : BT.601
Аудио #1
Идентификатор : 2
Формат : AC-3
Формат/Информация : Audio Coding 3
Расширение режима : CM (complete main)
Параметр Endianness формата : Big
Идентификатор кодека : A_AC3
Продолжительность : 1 ч. 18 м.
Вид битрейта : Постоянный
Битрейт : 448 Кбит/сек
Каналы : 6 каналов
Расположение каналов : Front: L C R, Side: L R, LFE
Частота : 48,0 КГц
Битовая глубина : 16 бит
Метод сжатия : С потерями
Размер потока : 250 Мбайт (13%)
Язык : Russian
Default : Да
Forced : Нет
Аудио #2
Идентификатор : 3
Формат : AC-3
Формат/Информация : Audio Coding 3
Расширение режима : CM (complete main)
Параметр Endianness формата : Big
Идентификатор кодека : A_AC3
Продолжительность : 1 ч. 18 м.
Вид битрейта : Постоянный
Битрейт : 192 Кбит/сек
Каналы : 2 канала
Расположение каналов : Front: L R
Частота : 48,0 КГц
Битовая глубина : 16 бит
Метод сжатия : С потерями
Размер потока : 107 Мбайт (5%)
Язык : Russian
Default : Нет
Forced : Нет

Релиз от:
Автор релиза:



   Похожие торренты   Торрент   Размер 
В этой теме нет новых непрочитанных сообщений. Запасной игрок (1954) DVDRip

103 | 9

1.43 ГБ

В этой теме нет новых непрочитанных сообщений. Запасной игрок (1954) DVDRip-AVC

67 | 15

1.59 ГБ

В этой теме нет новых непрочитанных сообщений. Запасной игрок (1954) DVDRip от GeneralFilm

72 | 10

1.46 ГБ

В этой теме нет новых непрочитанных сообщений. Запасной игрок (1954) DVDRip-AVC от New-Team

10 | 1

1.09 ГБ

В этой теме нет новых непрочитанных сообщений. Запасной игрок (1954) DVDRip от New-Team

2 | 0

1.09 ГБ

В этой теме нет новых непрочитанных сообщений. Запасной игрок (1954) DVDRip от New-Team

6 | 0

744.2 МБ

В этой теме нет новых непрочитанных сообщений. Запасной игрок (1954) DVD5

17 | 9

4.27 ГБ




Вы не можете начинать темы
Вы не можете отвечать на сообщения
Вы не можете редактировать свои сообщения
Вы не можете удалять свои сообщения
Вы не можете добавлять вложения

Перейти:  
Для Мосгорсуда, Роскомнадзора и рекламодателей: mosgorsud-torrent[собачка]yandex.ru
 Вход
ppkBB3cker v.2 © 2008-2014 @ PPK
[ Time : 0.045s | 15 Queries | GZIP : Off ]

cron