img image001 image001 image001 image001 image001 image001 image001 image001 image001 image001 image001 image001 image001 image001 image001

Planets Sun Sun Sun
Статистика раздачи
Автор: Nickolas3434 | Размер: 8.03 ГБ | Добавлен: 22 мар 2016
Раздают: 286    Качают: 30
Скачать торрент
Скачать торрент
Описание торрента

СообщениеДобавлено: 22 мар 2016 


Информация о фильме
Название: Война на западном направлении
Год выхода: 1990
Жанр: Драма, военный, ВОВ, экранизация
Режиссер: Григорий Кохан, Тимофей Левчук
В ролях: Виктор Степанов, Арчил Гомиашвили, Михаил Ульянов, Олег Савкин, Игорь Тарадайкин, Николай Олейник, Владимир Седов, Степан Олексенко, Павел Морозенко, Александр Быструшкин, Николай Засухин, Степан Старчиков, Ольга Сизова, Александр Песков, Евгений Жариков, Алла Усенко, Иван Мацкевич, Николай Волков мл., Андрей Толубеев, Павел Махотин, Юрий Назаров, Владимир Талашко, Сергей Подгорный, Леонид Бакштаев
О фильме:
Телевизионная киноэпопея по мотивам одноимённого романа Ивана Стаднюка о трагических событиях первых месяцев Великой Отечественной войны. Впервые в СССР была показана страшная ситуация, возникшая из-за простой боязни принятия стратегических, а тогда и личных, решений. В фильме показаны линии судьбы многих людей, от простых рядовых, совершивших, наверное, свой самый главный подвиг в той войне, до судеб командующих, которые, жертвуя собой, отстояли нашу Родину несмотря ни на что... Летом 1941 года генерал - майор Фёдор Чумаков был назначен командующим гарнизона на западной границе СССР. Но начинается война, после недолгих боёв гарнизон Чумакова оказывается в окружении...
Страна: СССР, Киностудия им. А. Довженко, ТО «Луч»
Продолжительность: 6 x ~ 01:12:00
Перевод: не требуется
Файл
Кодек: x264
Качество: SATRip-AVC
Видео: MPEG-4 AVC, ~ 2550 Кбит/с, [email protected]
Звук: AC3, 2 ch, 192 Кбит/с

Серия первая: «Взорванный мир».
Серия вторая: «Мы погибли бы, если б не погибали».
Серия третья: «Чёрное лето».
Серия четвёртая: «Сквозь дым и горечь неудач».
Серия пятая: «Огненный Смоленск».
Серия шестая: «Рождение гвардии».

Общее
Уникальный идентификатор : 255185069706815729655107770271690703461 (0xBFFADB5167A6E6CE8CB49A6696F4C265)
Полное имя : R:МОИ РИПЫВойна на западном направлении_1990-SATRip-AVCВойна-1.mkv
Формат : Matroska
Версия формата : Version 2
Размер файла : 1,41 Гбайт
Продолжительность : 1 ч. 13 м.
Общий поток : 2744 Кбит/сек
Дата кодирования : UTC 2014-12-10 00:06:16
Программа кодирования : mkvmerge v5.2.0 ('I can't explain') built on Dec 18 2011 18:12:03
Библиотека кодирования : libebml v1.2.3 + libmatroska v1.3.0
Видео
Идентификатор : 1
Формат : AVC
Формат/Информация : Advanced Video Codec
Профиль формата : High@L4.1
Параметр CABAC формата : Да
Параметр ReFrames формата : 14 кадров
Идентификатор кодека : V_MPEG4/ISO/AVC
Продолжительность : 1 ч. 13 м.
Битрейт : 2550 Кбит/сек
Ширина : 704 пикселя
Высота : 572 пикселя
Соотношение сторон : 4:3
Режим частоты кадров : Постоянный
Частота кадров : 25,000 кадров/сек
Цветовое пространство : YUV
Субдискретизация насыщенности : 4:2:0
Битовая глубина : 8 бит
Тип развёртки : Прогрессивная
Бит/(Пиксели*Кадры) : 0.253
Размер потока : 1,28 Гбайт (91%)
Библиотека кодирования : x264 core 142 r2431 ac76440
Настройки программы : cabac=1 / ref=14 / deblock=1:-2:-2 / analyse=0x3:0x133 / me=umh / subme=10 / psy=1 / psy_rd=1.07:0.15 / mixed_ref=1 / me_range=32 / chroma_me=1 / trellis=2 / 8x8dct=1 / cqm=0 / deadzone=21,11 / fast_pskip=0 / chroma_qp_offset=-3 / threads=12 / lookahead_threads=3 / sliced_threads=0 / nr=0 / decimate=0 / interlaced=0 / bluray_compat=0 / constrained_intra=0 / bframes=10 / b_pyramid=2 / b_adapt=2 / b_bias=0 / direct=1 / weightb=1 / open_gop=0 / weightp=2 / keyint=250 / keyint_min=25 / scenecut=40 / intra_refresh=0 / rc=2pass / mbtree=0 / bitrate=2550 / ratetol=1.0 / qcomp=0.60 / qpmin=0 / qpmax=39 / qpstep=4 / cplxblur=20.0 / qblur=0.5 / ip_ratio=1.40 / pb_ratio=1.30 / aq=1:1.00
Язык : English
Default : Да
Forced : Нет
Основные цвета : BT.601 PAL
Характеристики трансфера : BT.470 System B, BT.470 System G
Коэффициенты матрицы : BT.601
Аудио
Идентификатор : 2
Формат : AC-3
Формат/Информация : Audio Coding 3
Расширение режима : CM (complete main)
Параметр Endianness формата : Big
Идентификатор кодека : A_AC3
Продолжительность : 1 ч. 13 м.
Вид битрейта : Постоянный
Битрейт : 192 Кбит/сек
Каналы : 2 канала
Расположение каналов : Front: L R
Частота : 48,0 КГц
Битовая глубина : 16 бит
Метод сжатия : С потерями
Задержка видео : 142 мс.
Размер потока : 101 Мбайт (7%)
Язык : Russian
Default : Да
Forced : Нет

Релиз от:
Автор релиза:



   Похожие торренты   Торрент   Размер 
В этой теме нет новых непрочитанных сообщений. Война на западном направлении (1990) DVDRip от Русфильм

852 | 81

4.14 ГБ

В этой теме нет новых непрочитанных сообщений. На западном фронте без перемен / All Quiet on the Western Front (1930) BDRip-AVC от ExKinoRay | P

12 | 5

4.1 ГБ

В этой теме нет новых непрочитанных сообщений. BBC: Наедине с природой: В осаде-война термитов / BBC: The besieged War of the Termites [09 из 67] (2004) SATRip от ExKinoRay

3 | 3

545.19 МБ

В этой теме нет новых непрочитанных сообщений. Очарованный странник (1990) SATRip-AVC от ExKinoRay

421 | 7

2.34 ГБ

В этой теме нет новых непрочитанных сообщений. Морской волк (1990) SATRip-AVC от ExKinoRay

101 | 14

3.46 ГБ

В этой теме нет новых непрочитанных сообщений. Адвокат. Убийство на Монастырских прудах (1990) SATRip-AVC от ExKinoRay

105 | 35

3.52 ГБ

В этой теме нет новых непрочитанных сообщений. На Киевском направлении (1968) DVDRip - NovaLan

196 | 73

1.46 ГБ




Вы не можете начинать темы
Вы не можете отвечать на сообщения
Вы не можете редактировать свои сообщения
Вы не можете удалять свои сообщения
Вы не можете добавлять вложения

Перейти:  
Для Мосгорсуда, Роскомнадзора и рекламодателей: mosgorsud-torrent[собачка]yandex.ru
 Вход
ppkBB3cker v.2 © 2008-2014 @ PPK
[ Time : 0.030s | 15 Queries | GZIP : On ]
CGP output time : 0.024s | 5 Queries | GZIP : On

Торрент трекер RUTOR.IN, Не можете зайти на rutor.org? Какой новый адрес рутор? Какое зеркало рутор? Не работает rutor.org и зеркала? Тогда наш торрент специально для вас. Rutor.in неофициальное зеркало rutor. В случае если у Вас заблокирован rutor или вдруг Вы не можете на него зайти, то Вы без труда сможете скачать бесплатно и без рекламы последние новинки кино, игр, сериалов и прочего у нас, на Rutor.in. Не нужно использовать прокси, чтобы зайти на рутор, достаточно воспользоваться нашим ресурсом. Все новые фильмы, игры, сериалы, книги и музыка за 2013 и 2014 годы через торрент бесплатно. Скачивайте фильмы в хорошем качестве, игры для пк, xbox, playstation без регистрации. У нас вы найдете новые Зарубежные сериалы и Русские сериалы 2013, 2014, 2015 годов. Оставайтесь с нами, качайте любимые фильмы, игры, сериалы, книги и музыку.