img image001 image001 image001 image001 image001 image001 image001 image001 image001 image001 image001 image001 image001 image001 image001

Planets Sun Sun Sun
Статистика раздачи
Автор: Nickolas3434 | Размер: 3.29 ГБ | Добавлен: 22 мар 2016
Раздают: 92    Качают: 13
Скачать торрент
Скачать торрент
Описание торрента

СообщениеДобавлено: 22 мар 2016 


Информация о фильме
Название: Карнавал
Год выхода: 1981
Жанр: Комедия, мелодрама, музыкальный
Режиссер: Татьяна Лиознова
В ролях: Ирина Муравьёва, Юрий Яковлев, Клара Лучко, Александр Абдулов, Вера Васильева, Алевтина Румянцева, Екатерина Жемчужная, Борис Морозов, Александр Михайлов, Лидия Смирнова, Валентина Титова, Зинаида Воркуль, Георгий Жемчужный, Валентина Ананьина, Вадим Андреев, Елена Астафьева, Владимир Балашов, Вячеслав Баранов, Яков Беленький, Инга Будкевич, Марина Гаврилко, Евгений Горбатов, Александр Ильчинин, Светлана Коновалова, Елена Королёва, Клавдия Козлёнкова, Елена Максимова, Мария Скворцова, Павел Винник, Татьяна Чернопятова
О фильме:
Героиня фильма — провинциальная девчонка, мечтающая `выучиться на артистку`. Попав в столицу, она быстро расстается с романтическим представлением о жизни как сплошном празднике — зато начинает понимать, что в мире действительно стоит ценить и что вовсе не имеет цены… И странная получилась история: даже там, где героиня, казалось бы, проигрывает свою судьбу, она все равно остается героиней, потому что способна на нестандартный поступок, оригинальное деяние, безрассудное чувство, способна простить зло и ответить на него добром.
Страна: СССР, Киностудия им. М. Горького
Продолжительность: 01:13:55 + 01:10:50
Перевод: не требуется
Файл
Кодек: x264
Качество: DVDRip-AVC
Видео: MPEG-4 AVC, 2580 Кбит/с, [email protected]
Звук: AC3, 6 ch, 448 Кбит/с, AC3, 1 ch, 224 Кбит/с

Общее
Уникальный идентификатор : 171887995173725740333691900667061468875 (0x81506C77828A52909461829468A1FECB)
Полное имя : R:МОИ РИПЫКарнавал_1981-DVDRip-AVCКарнавал-1.mkv
Формат : Matroska
Версия формата : Version 2
Размер файла : 1,68 Гбайт
Продолжительность : 1 ч. 13 м.
Общий поток : 3254 Кбит/сек
Дата кодирования : UTC 2015-01-18 12:05:19
Программа кодирования : mkvmerge v5.2.1 ('A Far Off Place') built on Jan 31 2012 17:07:03
Библиотека кодирования : libebml v1.2.3 + libmatroska v1.3.0
Видео
Идентификатор : 1
Формат : AVC
Формат/Информация : Advanced Video Codec
Профиль формата : High@L4.1
Параметр CABAC формата : Да
Параметр ReFrames формата : 12 кадров
Идентификатор кодека : V_MPEG4/ISO/AVC
Продолжительность : 1 ч. 13 м.
Битрейт : 2580 Кбит/сек
Ширина : 714 пикселей
Высота : 572 пикселя
Соотношение сторон : 4:3
Соотношение сторон в оригинале : 4:3
Режим частоты кадров : Постоянный
Частота кадров : 25,000 кадров/сек
Цветовое пространство : YUV
Субдискретизация насыщенности : 4:2:0
Битовая глубина : 8 бит
Тип развёртки : Прогрессивная
Бит/(Пиксели*Кадры) : 0.253
Размер потока : 1,30 Гбайт (77%)
Библиотека кодирования : x264 core 142 r2431 ac76440
Настройки программы : cabac=1 / ref=12 / deblock=1:-2:-2 / analyse=0x3:0x133 / me=umh / subme=10 / psy=1 / psy_rd=1.05:0.15 / mixed_ref=1 / me_range=32 / chroma_me=1 / trellis=2 / 8x8dct=1 / cqm=0 / deadzone=21,11 / fast_pskip=0 / chroma_qp_offset=-3 / threads=12 / lookahead_threads=1 / sliced_threads=0 / nr=0 / decimate=0 / interlaced=0 / bluray_compat=0 / constrained_intra=0 / bframes=6 / b_pyramid=2 / b_adapt=2 / b_bias=0 / direct=3 / weightb=1 / open_gop=0 / weightp=2 / keyint=250 / keyint_min=25 / scenecut=40 / intra_refresh=0 / rc=2pass / mbtree=0 / bitrate=2580 / ratetol=1.0 / qcomp=0.60 / qpmin=0 / qpmax=39 / qpstep=4 / cplxblur=20.0 / qblur=0.5 / ip_ratio=1.40 / pb_ratio=1.30 / aq=1:1.00
Язык : English
Default : Да
Forced : Нет
Основные цвета : BT.601 PAL
Характеристики трансфера : BT.470 System B, BT.470 System G
Коэффициенты матрицы : BT.601
Аудио #1
Идентификатор : 2
Формат : AC-3
Формат/Информация : Audio Coding 3
Расширение режима : CM (complete main)
Параметр Endianness формата : Big
Идентификатор кодека : A_AC3
Продолжительность : 1 ч. 13 м.
Вид битрейта : Постоянный
Битрейт : 448 Кбит/сек
Каналы : 6 каналов
Расположение каналов : Front: L C R, Side: L R, LFE
Частота : 48,0 КГц
Битовая глубина : 16 бит
Метод сжатия : С потерями
Размер потока : 237 Мбайт (14%)
Язык : Russian
Default : Да
Forced : Нет
Аудио #2
Идентификатор : 3
Формат : AC-3
Формат/Информация : Audio Coding 3
Расширение режима : CM (complete main)
Параметр Endianness формата : Big
Идентификатор кодека : A_AC3
Продолжительность : 1 ч. 13 м.
Вид битрейта : Постоянный
Битрейт : 224 Кбит/сек
Каналы : 1 канал
Расположение каналов : Front: C
Частота : 48,0 КГц
Битовая глубина : 16 бит
Метод сжатия : С потерями
Размер потока : 118 Мбайт (7%)
Язык : Russian
Default : Нет
Forced : Нет

Релиз от:
Автор релиза:



   Похожие торренты   Торрент   Размер 
В этой теме нет новых непрочитанных сообщений. Карнавал (1981) DVDRip

819 | 30

1.37 ГБ

В этой теме нет новых непрочитанных сообщений. Карнавал (1981) DVD9 | Реставрация

180 | 8

6.96 ГБ

В этой теме нет новых непрочитанных сообщений. Александр Барыкин и гр. Карнавал - Дискография [29 альбомов] (1981-2009) MP3

82 | 44

2.97 ГБ

В этой теме нет новых непрочитанных сообщений. Александр Барыкин и группа Карнавал - Коллекция (1981-2011) МР3 от IMA-Sound

210 | 23

4.26 ГБ

В этой теме нет новых непрочитанных сообщений. Романтические города: Карнавал в Венеции / Romantic City: Carnival in Venice (2010) BDRip 720p от ExKinoRay

51 | 2

2.16 ГБ

В этой теме нет новых непрочитанных сообщений. Сильва (1981) DVDRip-AVC от ExKinoRay

293 | 62

2.77 ГБ

В этой теме нет новых непрочитанных сообщений. Прощание (1981) DVDRip-AVC от ExKinoRay

96 | 11

2.34 ГБ




Вы не можете начинать темы
Вы не можете отвечать на сообщения
Вы не можете редактировать свои сообщения
Вы не можете удалять свои сообщения
Вы не можете добавлять вложения

Перейти:  
Для Мосгорсуда, Роскомнадзора и рекламодателей: mosgorsud-torrent[собачка]yandex.ru
 Вход
ppkBB3cker v.2 © 2008-2014 @ PPK
[ Time : 0.055s | 14 Queries | GZIP : Off ]

Торрент трекер RUTOR.IN, Не можете зайти на rutor.org? Какой новый адрес рутор? Какое зеркало рутор? Не работает rutor.org и зеркала? Тогда наш торрент специально для вас. Rutor.in неофициальное зеркало rutor. В случае если у Вас заблокирован rutor или вдруг Вы не можете на него зайти, то Вы без труда сможете скачать бесплатно и без рекламы последние новинки кино, игр, сериалов и прочего у нас, на Rutor.in. Не нужно использовать прокси, чтобы зайти на рутор, достаточно воспользоваться нашим ресурсом. Все новые фильмы, игры, сериалы, книги и музыка за 2013 и 2014 годы через торрент бесплатно. Скачивайте фильмы в хорошем качестве, игры для пк, xbox, playstation без регистрации. У нас вы найдете новые Зарубежные сериалы и Русские сериалы 2013, 2014, 2015 годов. Оставайтесь с нами, качайте любимые фильмы, игры, сериалы, книги и музыку.