img image001 image001 image001 image001 image001 image001 image001 image001 image001 image001 image001 image001 image001 image001 image001

Planets Sun Sun Sun
Статистика раздачи
Автор: Nickolas3434 | Размер: 2.09 ГБ | Добавлен: 22 мар 2016
Раздают: 1150    Качают: 131
Скачать торрент
Скачать торрент
Описание торрента

СообщениеДобавлено: 22 мар 2016 


Год выпуска: 2016
Страна: Россия
Жанр: спорт, драма
Продолжительность: 01:43:45
Перевод: Не требуется [iTunes]
Субтитры: нет
Режиссер: Артем Аксененко
В ролях: Сергей Бондарчук, Евгений Пронин, Кристина Асмус, Егор Корешков, Александр Робак, Дарья Екамасова, Сергей Сосновский, Виктор Хориняк, Джемал Тетруашвили, Кристина Шаповалова
Описание: В мире их называли «Асфальтоукладчик», «Королева брусьев» и «Русская торпеда». Борец Александр Карелин, гимнастка Светлана Хоркина и пловец Александр Попов — реальные истории трех легендарных российских спортсменов, на общем счету которых 9 золотых олимпийских медалей и больше тысячи побед! У каждого был свой путь, своя уникальная драматическая история восхождения. Три яркие новеллы, основанные на реальных событиях, расскажут о том, что осталось за кадром спортивной хроники и каким был путь к высшему спортивному достижению — Олимпийский чемпион. Они стали легендами мирового спорта и дали возможность всей стране сказать «Мы победили!».
Качество видео: WEB-DLRip-AVC
Формат видео: MKV
Видео: 1024х436, 24 fps, AVC ~2500 kbps avg
Аудио: 48 kHz, AC3 Dolby Digital, 3/2 (L,C,R,l,r) + LFE ch, ~384 kbps
Релиз от:




ЧемпионыChempiony_bystree_vyshe_silnee_2016_AVC_WEB-DLRip_[scarabey.org].mkv
Format : Matroska
Format version : Version 2
File size : 2.09 GiB
Duration : 1h 43mn
Overall bit rate : 2 885 Kbps
Encoded date : UTC 2016-03-18 10:08:56
Writing application : mkvmerge v6.1.0 ('Old Devil') built on Mar 4 2013 09:10:42
Writing library : libebml v1.3.0 + libmatroska v1.4.0
Video
ID : 1
Format : AVC
Format/Info : Advanced Video Codec
Format profile : High@L4.1
Format settings, CABAC : Yes
Format settings, ReFrames : 10 frames
Codec ID : V_MPEG4/ISO/AVC
Duration : 1h 43mn
Bit rate : 2 500 Kbps
Width : 1 024 pixels
Height : 436 pixels
Display aspect ratio : 2.35:1
Frame rate mode : Constant
Frame rate : 24.000 fps
Color space : YUV
Chroma subsampling : 4:2:0
Bit depth : 8 bits
Scan type : Progressive
Bits/(Pixel*Frame) : 0.233
Stream size : 1.77 GiB (85%)
Writing library : x264 core 148 r2597 e86f3a1
Encoding settings : cabac=1 / ref=10 / deblock=1:-3:-2 / analyse=0x3:0x113 / me=umh / subme=10 / psy=1 / psy_rd=1.00:0.00 / mixed_ref=1 / me_range=32 / chroma_me=1 / trellis=2 / 8x8dct=1 / cqm=0 / deadzone=21,11 / fast_pskip=1 / chroma_qp_offset=-2 / threads=12 / lookahead_threads=2 / sliced_threads=0 / nr=0 / decimate=0 / interlaced=0 / bluray_compat=0 / constrained_intra=0 / bframes=8 / b_pyramid=2 / b_adapt=2 / b_bias=0 / direct=3 / weightb=1 / open_gop=0 / weightp=2 / keyint=240 / keyint_min=24 / scenecut=40 / intra_refresh=0 / rc_lookahead=40 / rc=2pass / mbtree=1 / bitrate=2500 / ratetol=1.0 / qcomp=0.60 / qpmin=0 / qpmax=69 / qpstep=4 / cplxblur=20.0 / qblur=0.5 / ip_ratio=1.40 / aq=1:1.00
Default : Yes
Forced : No
Audio
ID : 2
Format : AC-3
Format/Info : Audio Coding 3
Mode extension : CM (complete main)
Format settings, Endianness : Big
Codec ID : A_AC3
Duration : 1h 43mn
Bit rate mode : Constant
Bit rate : 384 Kbps
Channel(s) : 6 channels
Channel positions : Front: L C R, Side: L R, LFE
Sampling rate : 48.0 KHz
Bit depth : 16 bits
Compression mode : Lossy
Stream size : 285 MiB (13%)
Default : Yes
Forced : No



   Похожие торренты   Торрент   Размер 
В этой теме нет новых непрочитанных сообщений. Чемпионы: Быстрее. Выше. Сильнее (2016) WEB-DLRip от Scarabey | iTunes

1738 | 43

1.44 ГБ

В этой теме нет новых непрочитанных сообщений. Чемпионы: Быстрее. Выше. Сильнее (2016) WEB-DLRip от Scarabey | iTunes

1877 | 176

746.92 МБ

В этой теме нет новых непрочитанных сообщений. Чемпионы: Быстрее. Выше. Сильнее (2016) WEB-DLRip | iTunes

14850 | 237

1.46 ГБ

В этой теме нет новых непрочитанных сообщений. Чемпионы: Быстрее. Выше. Сильнее (2016) WEB-DLRip от MegaPeer | iTunes

1319 | 49

744.9 МБ

В этой теме нет новых непрочитанных сообщений. Чемпионы: Быстрее. Выше. Сильнее (2016) WEB-DLRip (AVC) от ExKinoRay | iTunes

2779 | 199

1.46 ГБ

В этой теме нет новых непрочитанных сообщений. Чемпионы: Быстрее. Выше. Сильнее (2016) WEB-DL 720p | iTunes

3529 | 120

3.24 ГБ

В этой теме нет новых непрочитанных сообщений. Чемпионы: Быстрее. Выше. Сильнее (2016) WEB-DL 1080p | iTunes

3834 | 170

3.47 ГБ




Вы не можете начинать темы
Вы не можете отвечать на сообщения
Вы не можете редактировать свои сообщения
Вы не можете удалять свои сообщения
Вы не можете добавлять вложения

Перейти:  
Для Мосгорсуда, Роскомнадзора и рекламодателей: mosgorsud-torrent[собачка]yandex.ru
 Вход
ppkBB3cker v.2 © 2008-2014 @ PPK
[ Time : 0.067s | 15 Queries | GZIP : On ]

Торрент трекер RUTOR.IN, Не можете зайти на rutor.org? Какой новый адрес рутор? Какое зеркало рутор? Не работает rutor.org и зеркала? Тогда наш торрент специально для вас. Rutor.in неофициальное зеркало rutor. В случае если у Вас заблокирован rutor или вдруг Вы не можете на него зайти, то Вы без труда сможете скачать бесплатно и без рекламы последние новинки кино, игр, сериалов и прочего у нас, на Rutor.in. Не нужно использовать прокси, чтобы зайти на рутор, достаточно воспользоваться нашим ресурсом. Все новые фильмы, игры, сериалы, книги и музыка за 2013 и 2014 годы через торрент бесплатно. Скачивайте фильмы в хорошем качестве, игры для пк, xbox, playstation без регистрации. У нас вы найдете новые Зарубежные сериалы и Русские сериалы 2013, 2014, 2015 годов. Оставайтесь с нами, качайте любимые фильмы, игры, сериалы, книги и музыку.