img image001 image001 image001 image001 image001 image001 image001 image001 image001 image001 image001 image001 image001 image001 image001

Planets Sun Sun Sun
Статистика раздачи
Автор: Nickolas3434 | Размер: 2.95 ГБ | Добавлен: 21 мар 2016
Раздают: 78    Качают: 7
Скачать торрент
Скачать торрент
Описание торрента

СообщениеДобавлено: 21 мар 2016 


Информация о фильме
Название: Эскадрон гусар летучих
Год выхода: 1980
Жанр: Военный, приключения, исторический, биография
Режиссер: Станислав Ростоцкий, Никита Хубов
В ролях: Андрей Ростоцкий, Марина Шиманская, Лидия Кузнецова, Евгений Лебедев, Юрий Рычков, Николай Ерёменко мл., Андрей Семин, Александр Карин, Александр Зимин, Владимир Мащенко, Иван Краско, Николай Карпов, Виктор Шуляковский, Владимир Шакало, Юрий Косых, Владимир Бадов, Улдис Вейспалс, Вячеслав Глушков, Владимир Сергиенко, Николай Юдин
О фильме:
Идёт Отечественная война 1812 года. Фильм рассказывает об отважном и бесстрашном гусаре и поэте, генерал-лейтенанте Денисе Давыдове (1784-1839), одним из первых организовавшем и возглавившем партизанскую борьбу против наполеоновской армии, оккупировавшей Россию в 1812 году. Подвиги и приключения Давыдова, ставшего легендарным при жизни, вызывали не только восхищение и радость друзей, но и злобу высокопоставленных завистников. Сам Давыдов был выше происков соперников. Умело направляя своих бесстрашных гусар в тандеме с крестьянскими отрядами, он наводил ужас на сбитых с толку французов, не привыкших к таким методам войны. Легко и непринуждённо одерживая свои победы, Денис Давыдов смог пожертвовать личным счастьем, укрыв свои переживания от тех, кто с восхищением и завистью наблюдал за этим удивительным баловнем судьбы, за этим неординарным представителем своей эпохи... Звучат песни и романсы на стихи Дениса Давыдова в исполнении Александра Хочинского.
Страна: СССР, Киностудия им. М. Горького
Продолжительность: 01:22:47 + 01:14:50
Перевод: не требуется
Файл
Кодек: x264
Качество: DVDRip-AVC
Видео: MPEG-4 AVC, 2250 Кбит/с, [email protected]
Звук: AC3, 6 ch, 384 Кбит/с

raw [info]: 706x500p 64:45 @ 25/1 fps (cfr)
x264 [info]: using SAR=64/45
x264 [info]: using cpu capabilities: MMX2 SSE2Fast SSSE3 SSE4.2 AVX
x264 [info]: profile High, level 4.1
x264 [info]: frame I:669 Avg QP:14.82 size: 65371
x264 [info]: frame P:27422 Avg QP:17.01 size: 31662
x264 [info]: frame B:96101 Avg QP:20.00 size: 5049
=============================================================================================================
Общее
Уникальный идентификатор : 182928912203046190512632904955601418186 (0x899ED3B4586EC461A4A0170117F4F7CA)
Полное имя : D:Эскадрон-1.mkv
Формат : Matroska
Версия формата : Version 2
Размер файла : 1,52 Гбайт
Продолжительность : 1 ч. 22 м.
Общий поток : 2636 Кбит/сек
Дата кодирования : UTC 2016-03-20 08:34:21
Программа кодирования : mkvmerge v5.8.0 ('No Sleep / Pillow') built on Sep 2 2012 15:37:04
Библиотека кодирования : libebml v1.2.3 + libmatroska v1.3.0
Видео
Идентификатор : 1
Формат : AVC
Формат/Информация : Advanced Video Codec
Профиль формата : High@L4.1
Параметр CABAC формата : Да
Параметр ReFrames формата : 15 кадров
Идентификатор кодека : V_MPEG4/ISO/AVC
Продолжительность : 1 ч. 22 м.
Битрейт : 2250 Кбит/сек
Ширина : 706 пикселей
Высота : 500 пикселей
Соотношение сторон : 2,008
Режим частоты кадров : Постоянный
Частота кадров : 25,000 кадров/сек
Цветовое пространство : YUV
Субдискретизация насыщенности : 4:2:0
Битовая глубина : 8 бит
Тип развёртки : Прогрессивная
Бит/(Пиксели*Кадры) : 0.255
Размер потока : 1,27 Гбайт (83%)
Библиотека кодирования : x264 core 148 r2638 7599210
Настройки программы : cabac=1 / ref=15 / deblock=1:2:-2 / analyse=0x3:0x133 / me=umh / subme=10 / psy=1 / psy_rd=1.05:0.07 / mixed_ref=1 / me_range=32 / chroma_me=1 / trellis=2 / 8x8dct=1 / cqm=0 / deadzone=21,11 / fast_pskip=0 / chroma_qp_offset=-3 / threads=12 / lookahead_threads=2 / sliced_threads=0 / nr=0 / decimate=0 / interlaced=0 / bluray_compat=0 / constrained_intra=0 / bframes=9 / b_pyramid=2 / b_adapt=2 / b_bias=0 / direct=3 / weightb=1 / open_gop=0 / weightp=2 / keyint=250 / keyint_min=25 / scenecut=40 / intra_refresh=0 / rc_lookahead=40 / rc=2pass / mbtree=1 / bitrate=2250 / ratetol=1.0 / qcomp=0.65 / qpmin=0 / qpmax=39 / qpstep=4 / cplxblur=20.0 / qblur=0.5 / ip_ratio=1.20 / aq=1:1.00
Язык : English
Default : Да
Forced : Нет
Основные цвета : BT.601 PAL
Характеристики трансфера : BT.470 System B, BT.470 System G
Коэффициенты матрицы : BT.601
Аудио
Идентификатор : 2
Формат : AC-3
Формат/Информация : Audio Coding 3
Расширение режима : CM (complete main)
Параметр Endianness формата : Big
Идентификатор кодека : A_AC3
Продолжительность : 1 ч. 22 м.
Вид битрейта : Постоянный
Битрейт : 384 Кбит/сек
Каналы : 6 каналов
Расположение каналов : Front: L C R, Side: L R, LFE
Частота : 48,0 КГц
Битовая глубина : 16 бит
Метод сжатия : С потерями
Размер потока : 227 Мбайт (15%)
Язык : Russian
Default : Да
Forced : Нет

Релиз от:
Автор релиза:



   Похожие торренты   Торрент   Размер 
В этой теме нет новых непрочитанных сообщений. Эскадрон гусар летучих (1980) DVDRip

466 | 17

2.18 ГБ

В этой теме нет новых непрочитанных сообщений. Эскадрон гусар летучих (1980) DVDRip от Files-x

27 | 5

2.74 ГБ

В этой теме нет новых непрочитанных сообщений. Эскадрон гусар летучих (1980) DVDRip-AVC от New-Team

12 | 6

2.18 ГБ

В этой теме нет новых непрочитанных сообщений. Эскадрон гусар летучих (1980) DVDRip от New-Team

25 | 6

1.46 ГБ

В этой теме нет новых непрочитанных сообщений. Гусар на крыше / Le hussard sur le toit (1995) DVDRip от ExKinoRay

10 | 2

2.05 ГБ

В этой теме нет новых непрочитанных сообщений. Эскадрон 633 / Эскадрилья 633 / 633 Squadron (1964) DVDRip от Кинорадиомагия

58 | 24

1.37 ГБ

В этой теме нет новых непрочитанных сообщений. Охота на лис (1980) DVDRip от ExKinoRay

14 | 11

1.37 ГБ




Вы не можете начинать темы
Вы не можете отвечать на сообщения
Вы не можете редактировать свои сообщения
Вы не можете удалять свои сообщения
Вы не можете добавлять вложения

Перейти:  
Для Мосгорсуда, Роскомнадзора и рекламодателей: mosgorsud-torrent[собачка]yandex.ru
 Вход
ppkBB3cker v.2 © 2008-2014 @ PPK
[ Time : 0.053s | 15 Queries | GZIP : Off ]

Торрент трекер RUTOR.IN, Не можете зайти на rutor.org? Какой новый адрес рутор? Какое зеркало рутор? Не работает rutor.org и зеркала? Тогда наш торрент специально для вас. Rutor.in неофициальное зеркало rutor. В случае если у Вас заблокирован rutor или вдруг Вы не можете на него зайти, то Вы без труда сможете скачать бесплатно и без рекламы последние новинки кино, игр, сериалов и прочего у нас, на Rutor.in. Не нужно использовать прокси, чтобы зайти на рутор, достаточно воспользоваться нашим ресурсом. Все новые фильмы, игры, сериалы, книги и музыка за 2013 и 2014 годы через торрент бесплатно. Скачивайте фильмы в хорошем качестве, игры для пк, xbox, playstation без регистрации. У нас вы найдете новые Зарубежные сериалы и Русские сериалы 2013, 2014, 2015 годов. Оставайтесь с нами, качайте любимые фильмы, игры, сериалы, книги и музыку.
cron