img image001 image001 image001 image001 image001 image001 image001 image001 image001 image001 image001 image001 image001 image001 image001

Planets Sun Sun Sun
Статистика раздачи
Автор: Nickolas3434 | Размер: 745.15 МБ | Добавлен: 23 мар 2016
Раздают: 245    Качают: 15
Скачать торрент
Скачать торрент
Описание торрента

СообщениеДобавлено: 23 мар 2016 


Информация о фильме
Название: Солдаты
Год выхода: 1956
Жанр: Драма, военный
Режиссер: Александр Иванов
В ролях: Всеволод Сафонов, Иннокентий Смоктуновский, Тамара Логинова, Леонид Кмит, Николай Погодин, Людмила Маркелия, Юрий Соловьев, Евгений Тетерин, Владислав Ковальков, Михаил Ладыгин, Борис Ильясов
О фильме:
Июль 1942 года. Лейтенант Керженцев, его связной Валега и полковой разведчик Седых вместе с отступающими частями нашей армии идут мимо украинских деревень к Сталинграду, где уже формируются новые части...

Страна: СССР
Студия: Ленфильм
Продолжительность: 01:40:06
Перевод: Не требуется
Файл
Кодек: XviD
Качество: DVDRip
Видео: 512x384 (1.33:1), 25 fps, XviD build 73 ~902 kbps avg, 0.18 bit/pixel
Звук: 48 kHz, MPEG Layer 3, 2 ch, ~128.00 kbps avg
Субтитры: Отсутствуют
Семпл
General
Complete name : D:Изготовление рипаSoldati_dvdrip by shkiper.avi
Format : AVI
Format/Info : Audio Video Interleave
File size : 745 MiB
Duration : 1h 40mn
Overall bit rate : 1 041 Kbps
Writing application : VirtualDubMod 1.5.10.3 | www.virtualdub-fr.org || (build 2550/release)
Writing library : VirtualDubMod build 2550/release
Video
ID : 0
Format : MPEG-4 Visual
Format profile : Advanced Simple@L5
Format settings, BVOP : 1
Format settings, QPel : No
Format settings, GMC : No warppoints
Format settings, Matrix : Custom
Codec ID : XVID
Codec ID/Hint : XviD
Duration : 1h 40mn
Bit rate : 903 Kbps
Width : 512 pixels
Height : 384 pixels
Display aspect ratio : 4:3
Frame rate : 25.000 fps
Color space : YUV
Chroma subsampling : 4:2:0
Bit depth : 8 bits
Scan type : Progressive
Compression mode : Lossy
Bits/(Pixel*Frame) : 0.184
Stream size : 647 MiB (87%)
Writing library : XviD 73
Audio
ID : 1
Format : MPEG Audio
Format version : Version 1
Format profile : Layer 3
Codec ID : 55
Codec ID/Hint : MP3
Duration : 1h 40mn
Bit rate mode : Constant
Bit rate : 128 Kbps
Channel(s) : 2 channels
Sampling rate : 48.0 KHz
Compression mode : Lossy
Stream size : 91.7 MiB (12%)
Alignment : Aligned on interleaves
Interleave, duration : 40 ms (1.00 video frame)
Interleave, preload duratio : 504 ms
Writing library : LAME3.99r
Encoding settings : -m s -V 4 -q 2 -lowpass 17 -b 128

Релиз от:



   Похожие торренты   Торрент   Размер 
В этой теме нет новых непрочитанных сообщений. Солдаты (1956) DVDRip

41 | 5

1.45 ГБ

В этой теме нет новых непрочитанных сообщений. Солдаты [S12] (2007) DVDRip

53 | 25

20.55 ГБ

В этой теме нет новых непрочитанных сообщений. Солдаты [S11] (2007) DVDRip

125 | 27

4.57 ГБ

В этой теме нет новых непрочитанных сообщений. Солдаты [01x01-08] (2004) DVDRip

321 | 38

3.08 ГБ

В этой теме нет новых непрочитанных сообщений. Солдаты [S03] (2005) DVDRip.by Magy®

83 | 31

10.9 ГБ

В этой теме нет новых непрочитанных сообщений. Солдаты [S02] (2004) DVDRip от ExKinoRay

265 | 67

10.93 ГБ

В этой теме нет новых непрочитанных сообщений. Солдаты [S01-05] (2004-2005) DVDRip

146 | 148

49.1 ГБ




Вы не можете начинать темы
Вы не можете отвечать на сообщения
Вы не можете редактировать свои сообщения
Вы не можете удалять свои сообщения
Вы не можете добавлять вложения

Перейти:  
Для Мосгорсуда, Роскомнадзора и рекламодателей: mosgorsud-torrent[собачка]yandex.ru
 Вход
ppkBB3cker v.2 © 2008-2014 @ PPK
[ Time : 0.172s | 14 Queries | GZIP : Off ]

Торрент трекер RUTOR.IN, Не можете зайти на rutor.org? Какой новый адрес рутор? Какое зеркало рутор? Не работает rutor.org и зеркала? Тогда наш торрент специально для вас. Rutor.in неофициальное зеркало rutor. В случае если у Вас заблокирован rutor или вдруг Вы не можете на него зайти, то Вы без труда сможете скачать бесплатно и без рекламы последние новинки кино, игр, сериалов и прочего у нас, на Rutor.in. Не нужно использовать прокси, чтобы зайти на рутор, достаточно воспользоваться нашим ресурсом. Все новые фильмы, игры, сериалы, книги и музыка за 2013 и 2014 годы через торрент бесплатно. Скачивайте фильмы в хорошем качестве, игры для пк, xbox, playstation без регистрации. У нас вы найдете новые Зарубежные сериалы и Русские сериалы 2013, 2014, 2015 годов. Оставайтесь с нами, качайте любимые фильмы, игры, сериалы, книги и музыку.