img image001 image001 image001 image001 image001 image001 image001 image001 image001 image001 image001 image001 image001 image001 image001

Planets Sun Sun Sun
Статистика раздачи
Автор: Nickolas3434 | Размер: 1.37 ГБ | Добавлен: 23 мар 2016
Раздают: 9487    Качают: 148
Скачать торрент
Скачать торрент
Описание торрента

СообщениеДобавлено: 23 мар 2016 


Производство: Россия / Стрела
Жанр: комедия
Режиссер: Александр Баршак
Продюсер: Сергей Петрейков, Леонид Барац, Ростислав Хаит
Актеры: Леонид Барац, Ростислав Хаит, Александр Демидов, Камиль Ларин, Василий Уткин, Нонна Гришаева, Максим Виторган, Михаил Ефремов, Алексей Макаров, Алексей Кортнев
Описание:
Игорь Цаплин будет избираться на третий срок, а поможет ему в этом уже знакомая зрителю команда пиарщиков.

Возраст: 12+ (зрителям, достигшим 12 лет)
Дата премьеры в России: 18 февраля 2016, «UPI»
Продолжительность: 01:44:18
Качество: WEBRip
Перевод: Не требуется (Русский)
Субтитры: Отсутствуют
Реклама: Присутствует голосовая и текстовая реклама!
Видео: XviD, 720x304, (2.35:1), 1739 Kbps, 25 fps
Аудио: AC3, 2 ch, 128 kbps - Русский
General
Complete name : Vybory 2. WEBRip.2016.avi
Format : AVI
Format/Info : Audio Video Interleave
File size : 1.37 GiB
Duration : 1h 44mn
Overall bit rate : 1 877 Kbps
Writing application : VirtualDubMod 1.5.10.2 (build 2540/release)
Writing library : VirtualDubMod build 2540/release
Video
ID : 0
Format : MPEG-4 Visual
Format profile : Advanced Simple@L5
Format settings, BVOP : 2
Format settings, QPel : No
Format settings, GMC : No warppoints
Format settings, Matrix : Default (MPEG)
Codec ID : XVID
Codec ID/Hint : XviD
Duration : 1h 44mn
Bit rate : 1 739 Kbps
Width : 720 pixels
Height : 304 pixels
Display aspect ratio : 2.35:1
Frame rate : 25.000 fps
Color space : YUV
Chroma subsampling : 4:2:0
Bit depth : 8 bits
Scan type : Progressive
Compression mode : Lossy
Bits/(Pixel*Frame) : 0.318
Stream size : 1.27 GiB (93%)
Writing library : XviD 1.2.1 (UTC 2008-12-04)
Audio
ID : 1
Format : AC-3
Format/Info : Audio Coding 3
Mode extension : CM (complete main)
Format settings, Endianness : Big
Codec ID : 2000
Duration : 1h 44mn
Bit rate mode : Constant
Bit rate : 128 Kbps
Channel(s) : 2 channels
Channel positions : Front: L R
Sampling rate : 48.0 KHz
Bit depth : 16 bits
Compression mode : Lossy
Stream size : 95.6 MiB (7%)
Alignment : Split accross interleaves
Interleave, duration : 40 ms (1.00 video frame)
Interleave, preload duration : 500 ms

Скриншоты:

Время раздачи: 24/7



   Похожие торренты   Торрент   Размер 
В этой теме нет новых непрочитанных сообщений. Госдеп с Ксенией Собчак 2. Итоги выборов [эфир от 06.03] (2012) WEBRip-AVC

0 | 1

273.18 МБ

В этой теме нет новых непрочитанных сообщений. День выборов 2 (2016) | iTunes

11166 | 607

1.46 ГБ

В этой теме нет новых непрочитанных сообщений. День выборов 2 (2016) WEB-DLRip-AVC | iTunes

2433 | 49

2.17 ГБ

В этой теме нет новых непрочитанных сообщений. День выборов 2 (2016) WEB-DL 720p | iTunes

5374 | 274

3.15 ГБ

В этой теме нет новых непрочитанных сообщений. День выборов 2 (2016) WEB-DL 1080p | iTunes

14736 | 828

3.64 ГБ

В этой теме нет новых непрочитанных сообщений. День выборов 2 (2016) WEB-DLRip | КПК | iTunes

186 | 5

470.62 МБ

В этой теме нет новых непрочитанных сообщений. День выборов 2 (2016) WEB-DLRip от Scarabey | iTunes

1586 | 85

745.79 МБ




Вы не можете начинать темы
Вы не можете отвечать на сообщения
Вы не можете редактировать свои сообщения
Вы не можете удалять свои сообщения
Вы не можете добавлять вложения

Перейти:  
Для Мосгорсуда, Роскомнадзора и рекламодателей: mosgorsud-torrent[собачка]yandex.ru
 Вход
ppkBB3cker v.2 © 2008-2014 @ PPK
[ Time : 0.069s | 14 Queries | GZIP : Off ]

Торрент трекер RUTOR.IN, Не можете зайти на rutor.org? Какой новый адрес рутор? Какое зеркало рутор? Не работает rutor.org и зеркала? Тогда наш торрент специально для вас. Rutor.in неофициальное зеркало rutor. В случае если у Вас заблокирован rutor или вдруг Вы не можете на него зайти, то Вы без труда сможете скачать бесплатно и без рекламы последние новинки кино, игр, сериалов и прочего у нас, на Rutor.in. Не нужно использовать прокси, чтобы зайти на рутор, достаточно воспользоваться нашим ресурсом. Все новые фильмы, игры, сериалы, книги и музыка за 2013 и 2014 годы через торрент бесплатно. Скачивайте фильмы в хорошем качестве, игры для пк, xbox, playstation без регистрации. У нас вы найдете новые Зарубежные сериалы и Русские сериалы 2013, 2014, 2015 годов. Оставайтесь с нами, качайте любимые фильмы, игры, сериалы, книги и музыку.