img image001 image001 image001 image001 image001 image001 image001 image001 image001 image001 image001 image001 image001 image001 image001

Planets Sun Sun Sun
Статистика раздачи
Автор: Nickolas3434 | Размер: 1.49 ГБ | Добавлен: 23 мар 2016
Раздают: 37    Качают: 7
Скачать торрент
Скачать торрент
Описание торрента

СообщениеДобавлено: 23 мар 2016 

Страна: СССР
Производство: Мосфильм
Жанр: драма, биография
Год выпуска: 1953
Продолжительность: 01:36:52
Перевод: Не требуется
Cубтитры: нет
Оригинальная аудиодорожка: русский
Режиссер: Михаил Калатозов
В ролях:
Владимир Емельянов, Михаил Кондратьев, Михаил Геловани, Леонид Любашевский, Владимир Соловьёв, Иван Любезнов, Алла Ларионова, Виктор Авдюшко, Георгий Юматов, Владимир Борискин, Игорь Безяев, Сергей Лукьянов, Сергей Ромоданов, Пётр Мухин, Андрей Попов, Николай Гриценко, Александр Хохлов, Григорий Кириллов, Олег Жаков, Антоний Ходурский, Алексей Коротюков...
Полный список актёров
Описание:
О первых годах становления Советской власти, о жизни и деятельности Ф.Дзержинского в 1918-1925 годах.
Июль 1918 года. Нпачинается левоэсеровский мятеж. Убит германский посол Мирбах. Феликс Дзержинский в одиночку отправляется в штаб левых эсеров и анархистов. Ему удаётся склонить на свою сторону простых солдат и матросов, участников мятежа. Они сами расправляются со своими главарями. Арестованы иностранные послы, организовавшие заговор, возглавленный британским посланником Локкартом.
В 1921 году партия направляет Дзержинского на борьбу с беспризорщиной. Узнав, где скрываются в Москве безспризорники по ночам, Дзержинский один отправлялся в их притон и быстро и легко овладевал доверием ребят. Уже после десятиминутного разговора эти дети голода и лишений, войны и разрухи, приученные своей жизнью к чему угодно, только не к доверчивости, устремлялись за Дзержинским к зданию ВЧК. Правда, до дверей доходили не все, но уж те, кто оставался, немедленно и прочно вступали на верную дорогу и приводили на неё остальных.
1925 год. Бывшие беспризорники, закончив учёбу, отправляются на строительство Югостали, крупнейшего промышленного комбината на Украине. В руководство предприятия пробрались враги, они всячески тормозят строительство...
Фильм закончили уже после смерти Сталина и положили на полку. В 1956 году картину перемонтировали. Из неё изъяли сцену, в которой комсомольцев, уезжающих работать на Югосталь, напутствует Сталин. Сталина заменили Дзержинским. Но получилась маленькая накладка. Такого всеобщего порыва, как показано в фильме, Дзержинский, конечно, вызывать не мог. Об этом случае вспоминала актриса Алла Ларионова.





Источник: DVD9 R5
Качество видео: DVDRip
Формат видео: AVI
Видео: 688x512 (4:3), 25 fps, XviD ~ 1998 kbps avg, 0.227 bit/pixel
Аудио: 48 kHz, Dolby Digital AC3 2.0, 192 kbps
Раздача от:
Общее
Полное имя : Vihri.vrazhdebnye.1953.DVDRip_[New-team]_by_AVP_Studio.avi
Формат : AVI
Формат/Информация : Audio Video Interleave
Размер файла : 1,49 Гбайт
Продолжительность : 1 ч. 36 м.
Общий поток : 2199 Кбит/сек
Программа кодирования : VirtualDubMod 1.5.10.3 | www.virtualdub-fr.org || (build 2550/release)
Библиотека кодирования : VirtualDubMod build 2550/release
Видео
Идентификатор : 0
Формат : MPEG-4 Visual
Профиль формата : Advanced Simple@L5
Параметр BVOP формата : 1
Параметр QPel формата : Нет
Параметр GMC формата : Без точки перехода
Параметр матрицы формата : Выборочная
Идентификатор кодека : XVID
Идентификатор кодека/Подсказка : XviD
Продолжительность : 1 ч. 36 м.
Битрейт : 1998 Кбит/сек
Ширина : 688 пикселей
Высота : 512 пикселей
Соотношение сторон : 4:3
Частота кадров : 25,000 кадров/сек
Цветовое пространство : YUV
Субдискретизация насыщенности : 4:2:0
Битовая глубина : 8 бит
Тип развёртки : Прогрессивная
Метод сжатия : С потерями
Бит/(Пиксели*Кадры) : 0.227
Размер потока : 1,35 Гбайт (91%)
Библиотека кодирования : XviD 1.2.1 (UTC 2008-12-04)
Аудио
Идентификатор : 1
Формат : AC-3
Формат/Информация : Audio Coding 3
Расширение режима : CM (complete main)
Параметр Endianness формата : Big
Идентификатор кодека : 2000
Продолжительность : 1 ч. 36 м.
Вид битрейта : Постоянный
Битрейт : 192 Кбит/сек
Каналы : 2 канала
Расположение каналов : Front: L R
Частота : 48,0 КГц
Частота кадров : 31,250 кадров/сек (1536 spf)
Метод сжатия : С потерями
Размер потока : 133 Мбайт (9%)
Выравнивание : Разделение по промежуткам
Продолжительность промежутка : 40 мс. (1,00 видеокадр)
Время предзагрузки промежутка : 500 мс





   Похожие торренты   Торрент   Размер 
В этой теме нет новых непрочитанных сообщений. Вихри враждебные (1953) DVDRip-AVC от New-Team

38 | 4

1.46 ГБ

В этой теме нет новых непрочитанных сообщений. Вихри враждебные (1953) DVDRip от New-Team

31 | 2

744.39 МБ

В этой теме нет новых непрочитанных сообщений. Вихри враждебные (1953) DVDRip-AVC

19 | 11

2 ГБ

В этой теме нет новых непрочитанных сообщений. Чук и Гек (1953) DVDRip от New-Team

669 | 23

745.12 МБ

В этой теме нет новых непрочитанных сообщений. Чук и Гек (1953) DVDRip-AVC от New-Team

164 | 27

744.41 МБ

В этой теме нет новых непрочитанных сообщений. Враги (1953) DVDRip от New-Team

14 | 9

2.18 ГБ

В этой теме нет новых непрочитанных сообщений. Нахлебник (1953) DVDRip от New-Team

27 | 9

1.46 ГБ




Вы не можете начинать темы
Вы не можете отвечать на сообщения
Вы не можете редактировать свои сообщения
Вы не можете удалять свои сообщения
Вы не можете добавлять вложения

Перейти:  
Для Мосгорсуда, Роскомнадзора и рекламодателей: mosgorsud-torrent[собачка]yandex.ru
 Вход
ppkBB3cker v.2 © 2008-2014 @ PPK
[ Time : 0.031s | 17 Queries | GZIP : On ]

Торрент трекер RUTOR.IN, Не можете зайти на rutor.org? Какой новый адрес рутор? Какое зеркало рутор? Не работает rutor.org и зеркала? Тогда наш торрент специально для вас. Rutor.in неофициальное зеркало rutor. В случае если у Вас заблокирован rutor или вдруг Вы не можете на него зайти, то Вы без труда сможете скачать бесплатно и без рекламы последние новинки кино, игр, сериалов и прочего у нас, на Rutor.in. Не нужно использовать прокси, чтобы зайти на рутор, достаточно воспользоваться нашим ресурсом. Все новые фильмы, игры, сериалы, книги и музыка за 2013 и 2014 годы через торрент бесплатно. Скачивайте фильмы в хорошем качестве, игры для пк, xbox, playstation без регистрации. У нас вы найдете новые Зарубежные сериалы и Русские сериалы 2013, 2014, 2015 годов. Оставайтесь с нами, качайте любимые фильмы, игры, сериалы, книги и музыку.