img image001 image001 image001 image001 image001 image001 image001 image001 image001 image001 image001 image001 image001 image001 image001

Planets Sun Sun Sun
Статистика раздачи
Автор: Nickolas3434 | Размер: 1.45 ГБ | Добавлен: 25 мар 2016
Раздают: 888    Качают: 133
Скачать торрент
Скачать торрент
Описание торрента

СообщениеДобавлено: 25 мар 2016 


Страна: Россия
Жанр: драма
Год выпуска: 2015
Продолжительность: 01:24:49


Перевод: Не требуется
Режиссер: Рустам Ильясов
В ролях: Пётр Фёдоров, Виктор Вержбицкий, Вильма Кутавичюте, Алексей Колубков, Софья Райзман, Виктор Проскурин, Дмитрий Калязин, Александр Обласов, Екатерина Молоховская, Надежда Жарычева


Описание: Андрей и Лена - супружеская пара, они молоды и счастливы. Когда Лена уезжает на несколько дней, Андрей уходит в загул со своим лучшим другом. Переезжая из клуба в клуб, Андрей попадает в необычное место под названием «Фотоателье». Там ему предлагают принять участие в интригующей игре: побыть в роли другого человека, на несколько дней став шеф-поваром дорогого ресторана, у которого есть все: богатый дом, интересная работа и красивая жена. Теперь Андрею предстоит многое выяснить: кто такой шеф-повар, кем является он сам, и кому можно доверять в изменившемся мире.





Качество: WEB-DLRip | WEB-DL 720
Контейнер: AVI
Видео: XviD, 720x304 (2.35:1), 2061 kbps, 24 fps, 0,392 bpp
Аудио: AC3 / 5.1 / 48 kHz / 384 kbps / 16 bit


Раздача от:

General
Complete name : E:Vakantna.zhyzn.shef.povara.2016.WEBDLRip.by.NewTeam.avi
Format : AVI
Format/Info : Audio Video Interleave
File size : 1.45 GiB
Duration : 1h 24mn
Overall bit rate : 2 455 Kbps
Writing application : VirtualDubMod 1.5.10.3 | www.virtualdub-fr.org || (build 2550/release)
Writing library : VirtualDubMod build 2550/release
Video
ID : 0
Format : MPEG-4 Visual
Format profile : Advanced Simple@L5
Format settings, BVOP : 1
Format settings, QPel : No
Format settings, GMC : No warppoints
Format settings, Matrix : Custom
Codec ID : XVID
Codec ID/Hint : XviD
Duration : 1h 24mn
Bit rate : 2 061 Kbps
Width : 720 pixels
Height : 304 pixels
Display aspect ratio : 2.35:1
Frame rate : 24.000 fps
Color space : YUV
Chroma subsampling : 4:2:0
Bit depth : 8 bits
Scan type : Progressive
Compression mode : Lossy
Bits/(Pixel*Frame) : 0.392
Stream size : 1.22 GiB (84%)
Writing library : XviD 73
Audio
ID : 1
Format : AC-3
Format/Info : Audio Coding 3
Mode extension : CM (complete main)
Format settings, Endianness : Big
Codec ID : 2000
Duration : 1h 24mn
Bit rate mode : Constant
Bit rate : 384 Kbps
Channel(s) : 6 channels
Channel positions : Front: L C R, Side: L R, LFE
Sampling rate : 48.0 KHz
Compression mode : Lossy
Stream size : 233 MiB (16%)
Alignment : Split accross interleaves
Interleave, duration : 42 ms (1.00 video frame)
Interleave, preload duratio : 500 ms



   Похожие торренты   Торрент   Размер 
В этой теме нет новых непрочитанных сообщений. Вакантна жизнь шеф-повара (2015) WEB-DLRip от torrentfilm

915 | 58

745.04 МБ

В этой теме нет новых непрочитанных сообщений. Вакантна жизнь шеф-повара (2015) WEB-DLRip | iTunes

4127 | 241

1.36 ГБ

В этой теме нет новых непрочитанных сообщений. Вакантна жизнь шеф-повара (2015) WEB-DL 720p | iTunes

2769 | 128

2.6 ГБ

В этой теме нет новых непрочитанных сообщений. Вакантна жизнь шеф-повара (2015) WEB-DRip от Scarabey | iTunes

542 | 40

1.45 ГБ

В этой теме нет новых непрочитанных сообщений. Невероятная жизнь Уолтера Митти / The Secret Life of Walter Mitty (2013) WEB-DLRip от New-Team | P | Baibako

7 | 127

1.45 ГБ

В этой теме нет новых непрочитанных сообщений. Невероятная жизнь Уолтера Митти / The Secret Life of Walter Mitty (2013) WEB-DLRip от New-Team | P | Baibako

48 | 134

747.06 МБ

В этой теме нет новых непрочитанных сообщений. Жизнь непредсказуема / Неожиданная жизнь / Life Unexpected [S02] (2010-2011) WEB-DLRip

59 | 2

6.98 ГБ




Вы не можете начинать темы
Вы не можете отвечать на сообщения
Вы не можете редактировать свои сообщения
Вы не можете удалять свои сообщения
Вы не можете добавлять вложения

Перейти:  
Для Мосгорсуда, Роскомнадзора и рекламодателей: mosgorsud-torrent[собачка]yandex.ru
 Вход
ppkBB3cker v.2 © 2008-2014 @ PPK
[ Time : 0.033s | 14 Queries | GZIP : Off ]

Торрент трекер RUTOR.IN, Не можете зайти на rutor.org? Какой новый адрес рутор? Какое зеркало рутор? Не работает rutor.org и зеркала? Тогда наш торрент специально для вас. Rutor.in неофициальное зеркало rutor. В случае если у Вас заблокирован rutor или вдруг Вы не можете на него зайти, то Вы без труда сможете скачать бесплатно и без рекламы последние новинки кино, игр, сериалов и прочего у нас, на Rutor.in. Не нужно использовать прокси, чтобы зайти на рутор, достаточно воспользоваться нашим ресурсом. Все новые фильмы, игры, сериалы, книги и музыка за 2013 и 2014 годы через торрент бесплатно. Скачивайте фильмы в хорошем качестве, игры для пк, xbox, playstation без регистрации. У нас вы найдете новые Зарубежные сериалы и Русские сериалы 2013, 2014, 2015 годов. Оставайтесь с нами, качайте любимые фильмы, игры, сериалы, книги и музыку.