img image001 image001 image001 image001 image001 image001 image001 image001 image001 image001 image001 image001 image001 image001 image001

Planets Sun Sun Sun
Статистика раздачи
Автор: Nickolas3434 | Размер: 745.25 МБ | Добавлен: 25 мар 2016
Раздают: 509    Качают: 38
Скачать торрент
Скачать торрент
Описание торрента

СообщениеДобавлено: 25 мар 2016 


Информация о фильме
Название: Соучастники
Год выхода: 2015
Жанр: Криминал, мелодрама
Режиссер: Роман Просвирнин
В ролях: Карина Разумовская, Дмитрий Миллер, Сергей Мухин, Елена Чернявская, Константин Соловьёв, Андрей Селиванов, Артём Фадеев, Евгения Каверау, Лариса Домаскина, Артём Банников, Елена Кожейкина
О фильме:
Ольга возвращается из командировки на день раньше и застает своего мужа Эдуарда в постели с учительницей их сына Жанной. После скандала Ольга выбегает из дома и натыкается во дворе на тело учительницы. Причины смерти Жанны неизвестны, но Эдуард уверен в одном: их семье не нужна огласка. Ведь он высокопоставленный чиновник мэрии, а их сын Арсений дружит с дочкой Жанны. Эдуард уговаривает Ольгу вывезти тело в город. Когда его найдут, никто не свяжет смерть женщины с их семьей. Однако, тело бесследно исчезает. И жизнь Эдуарда и Ольги, и без того отягченная изменой, превращается в ад. Весь город ищет Жанну, Ольгу мучают угрызения совести, сын начинает подозревать отца, арестовывают и обвиняют в убийстве невиновного, а тут еще Игорь, влюбленный в Ольгу, шантажирует ее и мужа. Ольга и Эдуард доведены до отчаяния и готовы признаться во всем, они не могут допустить, чтобы пострадал невиновный,… но тут рыбаки обнаруживают тело Жанны.

Страна: Россия
Студия: Кинокомпания Русское
Продолжительность: 01:32:10
Перевод: Не требуется
Файл
Кодек: XviD
Качество: HDTVRip
Видео: 624x352 (1.77:1), 25 fps, XviD build 73 ~992 kbps avg, 0.18 bit/pixel
Звук: 48 kHz, MPEG Layer 3, 2 ch, ~128.00 kbps avg
Субтитры: Отсутствует
Семпл
General
Complete name : D:Изготовление рипаSouchastniki.2015.HDTVRip.by shkiper.avi
Format : AVI
Format/Info : Audio Video Interleave
File size : 745 MiB
Duration : 1h 32mn
Overall bit rate : 1 131 Kbps
Writing application : VirtualDubMod 1.5.10.3 | www.virtualdub-fr.org || (build 2550/release)
Writing library : VirtualDubMod build 2550/release
Video
ID : 0
Format : MPEG-4 Visual
Format profile : Advanced [email protected]
Format settings, BVOP : 1
Format settings, QPel : No
Format settings, GMC : No warppoints
Format settings, Matrix : Custom
Codec ID : XVID
Codec ID/Hint : XviD
Duration : 1h 32mn
Bit rate : 993 Kbps
Width : 624 pixels
Height : 352 pixels
Display aspect ratio : 16:9
Frame rate : 25.000 fps
Color space : YUV
Chroma subsampling : 4:2:0
Bit depth : 8 bits
Scan type : Progressive
Compression mode : Lossy
Bits/(Pixel*Frame) : 0.181
Stream size : 654 MiB (88%)
Writing library : XviD 73
Audio
ID : 1
Format : MPEG Audio
Format version : Version 1
Format profile : Layer 3
Codec ID : 55
Codec ID/Hint : MP3
Duration : 1h 32mn
Bit rate mode : Constant
Bit rate : 128 Kbps
Channel(s) : 2 channels
Sampling rate : 48.0 KHz
Compression mode : Lossy
Stream size : 84.4 MiB (11%)
Alignment : Aligned on interleaves
Interleave, duration : 40 ms (1.00 video frame)
Interleave, preload duratio : 504 ms
Writing library : LAME3.99r
Encoding settings : -m s -V 4 -q 2 -lowpass 17 -b 128

Релиз от:



   Похожие торренты   Торрент   Размер 
В этой теме нет новых непрочитанных сообщений. Соучастники (2015) HDTVRip-AVC

282 | 12

1.11 ГБ

В этой теме нет новых непрочитанных сообщений. Соучастники (2015) HDTVRip от Files-x

2909 | 150

1.37 ГБ

В этой теме нет новых непрочитанных сообщений. Соучастники (2015) HDTVRip-AVC от Files-x

1328 | 74

1.37 ГБ

В этой теме нет новых непрочитанных сообщений. Соучастники (2015) HDTVRip 720p от MediaClub

981 | 47

2.43 ГБ

В этой теме нет новых непрочитанных сообщений. Соучастники (2015) WEB-DLRip-AVC от Files-x

136 | 9

1.37 ГБ

В этой теме нет новых непрочитанных сообщений. Соучастники (2015) WEB-DLRip от Files-x

91 | 2

1.37 ГБ

В этой теме нет новых непрочитанных сообщений. Вьюга (2015) HDTVRip от Шкипер

1435 | 141

745.19 МБ




Вы не можете начинать темы
Вы не можете отвечать на сообщения
Вы не можете редактировать свои сообщения
Вы не можете удалять свои сообщения
Вы не можете добавлять вложения

Перейти:  
Для Мосгорсуда, Роскомнадзора и рекламодателей: mosgorsud-torrent[собачка]yandex.ru
 Вход
ppkBB3cker v.2 © 2008-2014 @ PPK
[ Time : 0.018s | 14 Queries | GZIP : Off ]

Торрент трекер RUTOR.IN, Не можете зайти на rutor.org? Какой новый адрес рутор? Какое зеркало рутор? Не работает rutor.org и зеркала? Тогда наш торрент специально для вас. Rutor.in неофициальное зеркало rutor. В случае если у Вас заблокирован rutor или вдруг Вы не можете на него зайти, то Вы без труда сможете скачать бесплатно и без рекламы последние новинки кино, игр, сериалов и прочего у нас, на Rutor.in. Не нужно использовать прокси, чтобы зайти на рутор, достаточно воспользоваться нашим ресурсом. Все новые фильмы, игры, сериалы, книги и музыка за 2013 и 2014 годы через торрент бесплатно. Скачивайте фильмы в хорошем качестве, игры для пк, xbox, playstation без регистрации. У нас вы найдете новые Зарубежные сериалы и Русские сериалы 2013, 2014, 2015 годов. Оставайтесь с нами, качайте любимые фильмы, игры, сериалы, книги и музыку.