img image001 image001 image001 image001 image001 image001 image001 image001 image001 image001 image001 image001 image001 image001 image001

Planets Sun Sun Sun
Статистика раздачи
Автор: Nickolas3434 | Размер: 749.37 МБ | Добавлен: 27 мар 2016
Раздают: 1324    Качают: 108
Скачать торрент
Скачать торрент
Описание торрента

СообщениеДобавлено: 27 мар 2016 


Информация о фильме
Название: День выборов 2
Год выхода: 2016
Жанр: Комедия
Режиссер: Александр Баршак
В ролях: Леонид Барац, Ростислав Хаит, Александр Демидов, Камиль Ларин, Василий Уткин, Нонна Гришаева, Максим Виторган, Михаил Ефремов, Алексей Макаров, Алексей Кортнев
О фильме:
Спустя восемь лет со дня выхода комедии «День выборов» квартет «И» решил порадовать зрителей второй частью нашумевшего фильма. Сценаристы и режиссеры не стали изощряться, и сюжет фильма довольно прост: Игорь Цаплин, с легкой руки московских пиарщиков ставший губернатором, балатируется уже на третий срок, и всё бы ничего, но буквально за две недели до выборов, на торжественном открытии, новый мост взял и рухнул на глазах у журналистов и горожан. На волне скандала активируется соперник Цаплина...

Страна: Россия
Продолжительность: 01:44:06
Перевод: Оригинал [iTunes]
Файл
Кодек: AVI
Качество: WEB-DLRip
Видео: XviD, 869 Кбит/с, 656x272
Звук: MP3, 2 ch, 128 Кбит/с
Полное имя : D:Kinozal.TVDenj.Vyborov.2.2016.WEB-DLRip.by.GeneralFilm.avi
Формат : AVI
Формат/Информация : Audio Video Interleave
Размер файла : 749 Мбайт
Продолжительность : 1 ч. 44 м.
Общий поток : 1006 Кбит/сек
Программа кодирования : VirtualDubMod 1.5.10.3 | www.virtualdub-fr.org || (build 2550/release)
Библиотека кодирования : VirtualDubMod build 2550/release
Видео
Идентификатор : 0
Формат : MPEG-4 Visual
Профиль формата : Advanced Simple@L5
Параметр BVOP формата : 1
Параметр QPel формата : Нет
Параметр GMC формата : Без точки перехода
Параметр матрицы формата : Выборочная
Идентификатор кодека : XVID
Идентификатор кодека/Подсказка : XviD
Продолжительность : 1 ч. 44 м.
Битрейт : 869 Кбит/сек
Ширина : 656 пикселей
Высота : 272 пикселя
Соотношение сторон : 2,40:1
Частота кадров : 25,000 кадров/сек
Цветовое пространство : YUV
Субдискретизация насыщенности : 4:2:0
Битовая глубина : 8 бит
Тип развёртки : Прогрессивная
Метод сжатия : С потерями
Бит/(Пиксели*Кадры) : 0.195
Размер потока : 647 Мбайт (86%)
Библиотека кодирования : XviD 73
Аудио
Идентификатор : 1
Формат : MPEG Audio
Версия формата : Version 1
Профиль формата : Layer 3
Идентификатор кодека : 55
Идентификатор кодека/Подсказка : MP3
Продолжительность : 1 ч. 44 м.
Вид битрейта : Постоянный
Битрейт : 128 Кбит/сек
Каналы : 2 канала
Частота : 48,0 КГц
Метод сжатия : С потерями
Размер потока : 95,3 Мбайт (13%)
Выравнивание : Соединение по промежуткам
Продолжительность промежутка : 40 мс. (1,00 видеокадр)
Время предзагрузки промежутка : 504 мс.
Библиотека кодирования : LAME3.99r
Настройки программы : -m s -V 4 -q 0 -lowpass 17 -b 128








Релиз от:
Исходник WEB-DL 1080p



   Похожие торренты   Торрент   Размер 
В этой теме нет новых непрочитанных сообщений. День выборов 2 (2016) WEB-DLRip-AVC | iTunes

2474 | 49

2.17 ГБ

В этой теме нет новых непрочитанных сообщений. День выборов 2 (2016) WEB-DLRip | КПК | iTunes

200 | 6

470.62 МБ

В этой теме нет новых непрочитанных сообщений. День выборов 2 (2016) WEB-DLRip от Scarabey | iTunes

1574 | 86

745.79 МБ

В этой теме нет новых непрочитанных сообщений. День выборов 2 (2016) WEB-DLRip-AVC от Scarabey | iTunes

4140 | 190

1.88 ГБ

В этой теме нет новых непрочитанных сообщений. День выборов 2 (2016) WEB-DLRip от Scarabey | iTunes

4782 | 207

1.45 ГБ

В этой теме нет новых непрочитанных сообщений. День выборов 2 (2016) WEB-DLRip-AVC от ExKinoRay | iTunes Russia

2130 | 45

1.46 ГБ

В этой теме нет новых непрочитанных сообщений. День выборов 2 (2016) | iTunes

11621 | 616

1.46 ГБ




Вы не можете начинать темы
Вы не можете отвечать на сообщения
Вы не можете редактировать свои сообщения
Вы не можете удалять свои сообщения
Вы не можете добавлять вложения

Перейти:  
Для Мосгорсуда, Роскомнадзора и рекламодателей: mosgorsud-torrent[собачка]yandex.ru
 Вход
ppkBB3cker v.2 © 2008-2014 @ PPK
[ Time : 0.020s | 15 Queries | GZIP : Off ]

Торрент трекер RUTOR.IN, Не можете зайти на rutor.org? Какой новый адрес рутор? Какое зеркало рутор? Не работает rutor.org и зеркала? Тогда наш торрент специально для вас. Rutor.in неофициальное зеркало rutor. В случае если у Вас заблокирован rutor или вдруг Вы не можете на него зайти, то Вы без труда сможете скачать бесплатно и без рекламы последние новинки кино, игр, сериалов и прочего у нас, на Rutor.in. Не нужно использовать прокси, чтобы зайти на рутор, достаточно воспользоваться нашим ресурсом. Все новые фильмы, игры, сериалы, книги и музыка за 2013 и 2014 годы через торрент бесплатно. Скачивайте фильмы в хорошем качестве, игры для пк, xbox, playstation без регистрации. У нас вы найдете новые Зарубежные сериалы и Русские сериалы 2013, 2014, 2015 годов. Оставайтесь с нами, качайте любимые фильмы, игры, сериалы, книги и музыку.