img image001 image001 image001 image001 image001 image001 image001 image001 image001 image001 image001 image001 image001 image001 image001

Planets Sun Sun Sun
Статистика раздачи
Автор: Nickolas3434 | Размер: 2.2 ГБ | Добавлен: 26 мар 2016
Раздают: 86    Качают: 14
Скачать торрент
Скачать торрент
Описание торрента

СообщениеДобавлено: 26 мар 2016 


Информация о фильме
Название: Была не была
Год выхода: 1986
Жанр: Социальная драма
Режиссер: Валерий Федосов
В ролях: Григорий Катаев, Тина Лаптева, Алексей Жарков, Валентина Теличкина, Лариса Белогурова, Юрий Дуванов, Владислав Корнеев, Леонид Оболенский, Анатолий Кузнецов, Сергей Никоненко, Виктор Ильичёв, Любовь Германова, Дмитрий Харатьян, Светлана Старикова, Любовь Виролайнен ст., Виктор Павловский, Игорь Богодух, Анна Варпаховская, Александр Лебедев, Анатолий Скорякин, Борис Тенин мл.
О фильме:
Старшеклассник Василий Серов - трудный подросток, одинаково способный и на хорошие и на плохие поступки, влюбляется в дочь директора школы Ирину Звягинцеву. Дружба с Ирой обостряет в нем чувства справедливости, благородства. Однажды Вася случайно попадает в неприятности. С приятелем Лёхой он отобрал на пляже кроссовки. Теперь его ищет милиция.
Страна: СССР, Одесская киностудия по заказу Гостелерадио СССР
Продолжительность: 02:09:03
Перевод: не требуется
Файл
Кодек: x264
Качество: SATRip-AVC
Видео: MPEG-4, 2250 Кбит/с, [email protected]
Звук: AC3, 2 ch, 192 Кбит/с

x264 [info]: frame I:1167 Avg QP:14.82 size: 62604
x264 [info]: frame P:48610 Avg QP:17.73 size: 25849
x264 [info]: frame B:143821 Avg QP:19.92 size: 5899
x264 [info]: consecutive B-frames: 3.0% 4.2% 14.3% 26.1% 22.7% 25.0% 3.0% 1.1% 0.4% 0.2%
==============================================================================================================
Общее
Уникальный идентификатор : 252636941267270615461257925004484000585 (0xBE101AE2E2C82EF8B5ECF6161669BB49)
Полное имя : D:Была не была_1986-SATRip-AVC.mkv
Формат : Matroska
Версия формата : Version 2
Размер файла : 2,20 Гбайт
Продолжительность : 2 ч. 9 м.
Общий поток : 2444 Кбит/сек
Дата кодирования : UTC 2016-03-25 07:04:44
Программа кодирования : mkvmerge v5.8.0 ('No Sleep / Pillow') built on Sep 2 2012 15:37:04
Библиотека кодирования : libebml v1.2.3 + libmatroska v1.3.0
Видео
Идентификатор : 1
Формат : AVC
Формат/Информация : Advanced Video Codec
Профиль формата : High@L4.1
Параметр CABAC формата : Да
Параметр ReFrames формата : 14 кадров
Идентификатор кодека : V_MPEG4/ISO/AVC
Продолжительность : 2 ч. 9 м.
Битрейт : 2250 Кбит/сек
Ширина : 710 пикселей
Высота : 570 пикселей
Соотношение сторон : 4:3
Соотношение сторон в оригинале : 4:3
Режим частоты кадров : Постоянный
Частота кадров : 25,000 кадров/сек
Цветовое пространство : YUV
Субдискретизация насыщенности : 4:2:0
Битовая глубина : 8 бит
Тип развёртки : Прогрессивная
Бит/(Пиксели*Кадры) : 0.222
Размер потока : 1,99 Гбайт (90%)
Библиотека кодирования : x264 core 148 r2638 7599210
Настройки программы : cabac=1 / ref=14 / deblock=1:2:-2 / analyse=0x3:0x133 / me=umh / subme=10 / psy=1 / psy_rd=1.05:0.13 / mixed_ref=1 / me_range=32 / chroma_me=1 / trellis=2 / 8x8dct=1 / cqm=0 / deadzone=21,11 / fast_pskip=0 / chroma_qp_offset=-3 / threads=12 / lookahead_threads=2 / sliced_threads=0 / nr=0 / decimate=0 / interlaced=0 / bluray_compat=0 / constrained_intra=0 / bframes=9 / b_pyramid=2 / b_adapt=2 / b_bias=0 / direct=3 / weightb=1 / open_gop=0 / weightp=2 / keyint=250 / keyint_min=25 / scenecut=40 / intra_refresh=0 / rc=2pass / mbtree=0 / bitrate=2250 / ratetol=1.0 / qcomp=0.63 / qpmin=0 / qpmax=39 / qpstep=4 / cplxblur=20.0 / qblur=0.5 / ip_ratio=1.25 / pb_ratio=1.30 / aq=1:1.00
Язык : English
Default : Да
Forced : Нет
Основные цвета : BT.601 PAL
Характеристики трансфера : BT.470 System B, BT.470 System G
Коэффициенты матрицы : BT.601
Аудио
Идентификатор : 2
Формат : AC-3
Формат/Информация : Audio Coding 3
Расширение режима : CM (complete main)
Параметр Endianness формата : Big
Идентификатор кодека : A_AC3
Продолжительность : 2 ч. 9 м.
Вид битрейта : Постоянный
Битрейт : 192 Кбит/сек
Каналы : 2 канала
Расположение каналов : Front: L R
Частота : 48,0 КГц
Битовая глубина : 16 бит
Метод сжатия : С потерями
Размер потока : 177 Мбайт (8%)
Язык : Russian
Default : Да
Forced : Нет

Релиз от:
Автор релиза:



   Похожие торренты   Торрент   Размер 
В этой теме нет новых непрочитанных сообщений. Год теленка (1986) SATRip-AVC от ExKinoRay

24 | 15

1.4 ГБ

В этой теме нет новых непрочитанных сообщений. Лицом к лицу (1986) SATRip-AVC от ExKinoRay

156 | 45

1.84 ГБ

В этой теме нет новых непрочитанных сообщений. Без срока давности (1986) SATRip-AVC от ExKinoRay

41 | 9

1.46 ГБ

В этой теме нет новых непрочитанных сообщений. Анна Павлова (1986) SATRip-AVC от ExKinoRay | Телеверсия

14 | 2

3.82 ГБ

В этой теме нет новых непрочитанных сообщений. Секретный фарватер [01-04 из 04 серий] (1986) SATRip-AVC от ExKinoRay

54 | 16

4.34 ГБ

В этой теме нет новых непрочитанных сообщений. Магия Дэвида Копперфилда - 7 фильмов (1986-2001) SATRip от ExKinoRay.TV

12 | 3

4.48 ГБ

В этой теме нет новых непрочитанных сообщений. Joy - Best (1986) MP3 от BestSound ExKinoRay

12 | 5

106.5 МБ




Вы не можете начинать темы
Вы не можете отвечать на сообщения
Вы не можете редактировать свои сообщения
Вы не можете удалять свои сообщения
Вы не можете добавлять вложения

Перейти:  
Для Мосгорсуда, Роскомнадзора и рекламодателей: mosgorsud-torrent[собачка]yandex.ru
 Вход
ppkBB3cker v.2 © 2008-2014 @ PPK
[ Time : 0.037s | 15 Queries | GZIP : Off ]

cron