img image001 image001 image001 image001 image001 image001 image001 image001 image001 image001 image001 image001 image001 image001 image001

Planets Sun Sun Sun
Статистика раздачи
Автор: Nickolas3434 | Размер: 2.54 ГБ | Добавлен: 27 мар 2016
Раздают: 253    Качают: 18
Скачать торрент
Скачать торрент
Описание торрента

СообщениеДобавлено: 27 мар 2016 


Информация о фильме
Название: Война
Год выхода: 2002
Жанр: Боевик, драма, военный
Режиссер: Алексей Балабанов
В ролях: Алексей Чадов, Юрий Степанов, Ингеборга Дапкунайте, Сергей Бодров мл., Владимир Гостюхин, Иэн Келли, Георгий Гургулия, Эвклид Кюрдзидис, Виктория Смирнова, Алексей Алексеев, Виктор Смирнов
О фильме:
Двое бывших пленных - отслуживший русский срочник Иван и британский актер Джон - возвращаются в Чечню, в горы, где боевики держат невесту Джона и ждут выкуп; на поиски денег англичанин и был отправлен домой. Там их нашел не много, натолкнувшись на буржуйское безразличие пополам с лицемерием, зато разыскал в Тобольске бывшего товарища по несчастью и унижению, уговорил помочь, обещал заплатить. Но наш дембель не столько из-за денег соглашается; не столько потому, что русский британца, с которым в одном зиндане маялся, на войне не бросает, сколько по той причине, что жизнь на гражданке оказалась тоскливой и ватной. Не чета той, настоящей, мужской, с гранатометом в руках. И ему, Ивану, убивать легко. Так надо: это война, и они все бандиты, чохом. "Надо, Ваня. Это война"
Страна: Россия, Кинокомпания СТВ
Продолжительность: 01:59:54
Перевод: не требуется
Файл
Кодек: x264
Качество: DVDRip-AVC
Видео: MPEG-4 AVC, 2650 Кбит/с, [email protected]
Звук: AC3, 6 ch, 384 Кбит/с
Субтитры: Русские

raw [info]: 686x562p 64:45 @ 25/1 fps (cfr)
x264 [info]: using SAR=64/45
x264 [info]: using cpu capabilities: MMX2 SSE2Fast SSSE3 SSE4.2 AVX
x264 [info]: profile High, level 4.1
x264 [info]: frame I:932 Avg QP:15.28 size: 90066
x264 [info]: frame P:41759 Avg QP:18.74 size: 29470
x264 [info]: frame B:137170 Avg QP:20.45 size: 7790
================================================================================================================
Общее
Уникальный идентификатор : 240428311038203101775764470097685409674 (0xB4E0CEF161B6B4F99E9C7F3655CE6F8A)
Полное имя : D:Война_2002-DVDRip-AVC.mkv
Формат : Matroska
Версия формата : Version 2
Размер файла : 2,54 Гбайт
Продолжительность : 1 ч. 59 м.
Общий поток : 3036 Кбит/сек
Дата кодирования : UTC 2016-03-24 05:12:59
Программа кодирования : mkvmerge v5.8.0 ('No Sleep / Pillow') built on Sep 2 2012 15:37:04
Библиотека кодирования : libebml v1.2.3 + libmatroska v1.3.0
Видео
Идентификатор : 1
Формат : AVC
Формат/Информация : Advanced Video Codec
Профиль формата : High@L4.1
Параметр CABAC формата : Да
Параметр ReFrames формата : 14 кадров
Идентификатор кодека : V_MPEG4/ISO/AVC
Продолжительность : 1 ч. 59 м.
Битрейт : 2650 Кбит/сек
Ширина : 686 пикселей
Высота : 562 пикселя
Соотношение сторон : 1,735
Соотношение сторон в оригинале : 1,736
Режим частоты кадров : Постоянный
Частота кадров : 25,000 кадров/сек
Цветовое пространство : YUV
Субдискретизация насыщенности : 4:2:0
Битовая глубина : 8 бит
Тип развёртки : Прогрессивная
Бит/(Пиксели*Кадры) : 0.275
Размер потока : 2,17 Гбайт (85%)
Библиотека кодирования : x264 core 148 r2638 7599210
Настройки программы : cabac=1 / ref=14 / deblock=1:2:-2 / analyse=0x3:0x133 / me=umh / subme=10 / psy=1 / psy_rd=1.05:0.13 / mixed_ref=1 / me_range=32 / chroma_me=1 / trellis=2 / 8x8dct=1 / cqm=0 / deadzone=21,11 / fast_pskip=0 / chroma_qp_offset=-3 / threads=12 / lookahead_threads=3 / sliced_threads=0 / nr=0 / decimate=0 / interlaced=0 / bluray_compat=0 / constrained_intra=0 / bframes=10 / b_pyramid=2 / b_adapt=2 / b_bias=0 / direct=3 / weightb=1 / open_gop=0 / weightp=2 / keyint=250 / keyint_min=25 / scenecut=40 / intra_refresh=0 / rc=2pass / mbtree=0 / bitrate=2650 / ratetol=1.0 / qcomp=0.63 / qpmin=0 / qpmax=39 / qpstep=4 / cplxblur=20.0 / qblur=0.5 / ip_ratio=1.40 / pb_ratio=1.30 / aq=1:1.00
Язык : English
Default : Да
Forced : Нет
Основные цвета : BT.601 PAL
Характеристики трансфера : BT.470 System B, BT.470 System G
Коэффициенты матрицы : BT.601
Аудио
Идентификатор : 2
Формат : AC-3
Формат/Информация : Audio Coding 3
Расширение режима : CM (complete main)
Параметр Endianness формата : Big
Идентификатор кодека : A_AC3
Продолжительность : 1 ч. 59 м.
Вид битрейта : Постоянный
Битрейт : 384 Кбит/сек
Каналы : 6 каналов
Расположение каналов : Front: L C R, Side: L R, LFE
Частота : 48,0 КГц
Битовая глубина : 16 бит
Метод сжатия : С потерями
Размер потока : 329 Мбайт (13%)
Язык : Russian
Default : Да
Forced : Нет
Текст
Идентификатор : 3
Формат : UTF-8
Идентификатор кодека : S_TEXT/UTF8
Идентификатор кодека/Информация : UTF-8 Plain Text
Язык : Russian
Default : Нет
Forced : Нет
Меню
00:06:03.000 : :Chapter 01
00:12:31.800 : :Chapter 02
00:17:57.600 : :Chapter 03
00:23:06.600 : :Chapter 04
00:30:25.200 : :Chapter 05
00:37:13.200 : :Chapter 06
00:42:24.000 : :Chapter 07
00:47:47.400 : :Chapter 08
00:53:58.800 : :Chapter 09
01:01:03.400 : :Chapter 10
01:09:00.400 : :Chapter 11
01:17:30.400 : :Chapter 12
01:25:22.000 : :Chapter 13
01:33:41.200 : :Chapter 14
01:39:54.400 : :Chapter 15
01:45:58.000 : :Chapter 16
01:52:07.600 : :Chapter 17
01:56:17.200 : :Chapter 18

Релиз от:
Автор релиза:



   Похожие торренты   Торрент   Размер 
В этой теме нет новых непрочитанных сообщений. Война (2002) DVDRip от ExKinoRay

768 | 37

2.05 ГБ

В этой теме нет новых непрочитанных сообщений. Война и Мир / Война и Мир 2: Вторая корона (1998-2002) PC

443 | 38

125.76 МБ

В этой теме нет новых непрочитанных сообщений. Война (2002) DVDRip

110 | 9

1.45 ГБ

В этой теме нет новых непрочитанных сообщений. Война (2002) DVDRip-AVC | 60 fps

300 | 19

3.68 ГБ

В этой теме нет новых непрочитанных сообщений. Война (2002) DVDRip от Scarabey

191 | 10

745.72 МБ

В этой теме нет новых непрочитанных сообщений. Война (2002) DVDRip от Scarabey

384 | 19

1.45 ГБ

В этой теме нет новых непрочитанных сообщений. Война Харта / Hart's War (2002) DVDRip от NovaLan

0 | 3

2.33 ГБ




Вы не можете начинать темы
Вы не можете отвечать на сообщения
Вы не можете редактировать свои сообщения
Вы не можете удалять свои сообщения
Вы не можете добавлять вложения

Перейти:  
Для Мосгорсуда, Роскомнадзора и рекламодателей: mosgorsud-torrent[собачка]yandex.ru
 Вход
ppkBB3cker v.2 © 2008-2014 @ PPK
[ Time : 0.075s | 15 Queries | GZIP : Off ]

Торрент трекер RUTOR.IN, Не можете зайти на rutor.org? Какой новый адрес рутор? Какое зеркало рутор? Не работает rutor.org и зеркала? Тогда наш торрент специально для вас. Rutor.in неофициальное зеркало rutor. В случае если у Вас заблокирован rutor или вдруг Вы не можете на него зайти, то Вы без труда сможете скачать бесплатно и без рекламы последние новинки кино, игр, сериалов и прочего у нас, на Rutor.in. Не нужно использовать прокси, чтобы зайти на рутор, достаточно воспользоваться нашим ресурсом. Все новые фильмы, игры, сериалы, книги и музыка за 2013 и 2014 годы через торрент бесплатно. Скачивайте фильмы в хорошем качестве, игры для пк, xbox, playstation без регистрации. У нас вы найдете новые Зарубежные сериалы и Русские сериалы 2013, 2014, 2015 годов. Оставайтесь с нами, качайте любимые фильмы, игры, сериалы, книги и музыку.