img image001 image001 image001 image001 image001 image001 image001 image001 image001 image001 image001 image001 image001 image001 image001

Planets Sun Sun Sun
Статистика раздачи
Автор: Nickolas3434 | Размер: 4.28 ГБ | Добавлен: 28 мар 2016
Раздают: 99    Качают: 27
Скачать торрент
Скачать торрент
Описание торрента

СообщениеДобавлено: 28 мар 2016 


Информация о фильме
Название: Пропавшая экспедиция / Золотая речка
Год выхода: 1975-1976
Жанр: Приключенческий детектив
Режиссер: Вениамин Дорман
В ролях: Александр Абдулов, Николай Гринько, Вахтанг Кикабидзе, Евгения Симонова, Александр Кайдановский, Борис Сморчков, Сергей Шевкуненко, Николай Горлов, Юрий Каюров, Андрей Харыбин, Георгий Мартиросян, Ольга Матешко, Николай Олялин, Сергей Сазонтьев, Виктор Сергачёв
О фильме:
Пропавшая экспедиция: 1918 год. Молодая Советская республика отчаянно борется с голодом, но хлеб можно купить только за золото. По заданию Правительства в Сибирь снаряжается геологическая экспедиция во главе с профессором Смелковым. Там, на берегу реки Ардыбаш, маленький отряд надеется найти залежи этого драгоценного металла. Но за сокровищами уже идет охота, и члены экспедиции попадают в плен к белогвардейцам...
Золотая речка: Продолжение фильма «Пропавшая экспедиция». На этот раз события разворачиваются в 1923 году. Герои фильма вновь попадают в те места, где было найдено богатое месторождение золота. Однако добраться до него оказывается не проще, чем несколько лет назад…
Страна: СССР, Мосфильм, Киностудия им. М. Горького
Продолжительность: 01:04:08 + 01:00:09 + 01:31:53
Перевод: не требуется
Файл
Кодек: x264
Качество: DVDRip-AVC
Видео: MPEG-4, ~ 2675 Кбит/с, [email protected], [email protected]
Звук: AC3, 2 ch, 224 Кбит/с

Общее
Уникальный идентификатор : 181425647524314117606479942788887892171 (0x887D4F0894D7D737BF30BF358C0450CB)
Полное имя : R:МОИ РИПЫПропавшая экспедиция, Золотая речка_1975-76-DVDRip-AVCПропавшая экспедиция-1.mkv
Формат : Matroska
Версия формата : Version 2
Размер файла : 1,29 Гбайт
Продолжительность : 1 ч. 4 м.
Общий поток : 2878 Кбит/сек
Дата кодирования : UTC 2014-08-17 18:04:10
Программа кодирования : mkvmerge v5.2.0 ('I can't explain') built on Dec 18 2011 18:12:03
Библиотека кодирования : libebml v1.2.3 + libmatroska v1.3.0
Видео
Идентификатор : 1
Формат : AVC
Формат/Информация : Advanced Video Codec
Профиль формата : High@L4.1
Параметр CABAC формата : Да
Параметр ReFrames формата : 13 кадров
Идентификатор кодека : V_MPEG4/ISO/AVC
Продолжительность : 1 ч. 4 м.
Битрейт : 2652 Кбит/сек
Ширина : 700 пикселей
Высота : 514 пикселей
Соотношение сторон : 1,938
Соотношение сторон в оригинале : 1,937
Режим частоты кадров : Постоянный
Частота кадров : 25,000 кадров/сек
Цветовое пространство : YUV
Субдискретизация насыщенности : 4:2:0
Битовая глубина : 8 бит
Тип развёртки : Прогрессивная
Бит/(Пиксели*Кадры) : 0.295
Размер потока : 1,16 Гбайт (90%)
Библиотека кодирования : x264 core 142 r2431 ac76440
Настройки программы : cabac=1 / ref=13 / deblock=1:-2:-2 / analyse=0x3:0x133 / me=umh / subme=10 / psy=1 / psy_rd=1.05:0.19 / mixed_ref=1 / me_range=24 / chroma_me=1 / trellis=2 / 8x8dct=1 / cqm=0 / deadzone=21,11 / fast_pskip=0 / chroma_qp_offset=-3 / threads=12 / lookahead_threads=2 / sliced_threads=0 / nr=0 / decimate=0 / interlaced=0 / bluray_compat=0 / constrained_intra=0 / bframes=7 / b_pyramid=2 / b_adapt=2 / b_bias=0 / direct=3 / weightb=1 / open_gop=0 / weightp=2 / keyint=250 / keyint_min=25 / scenecut=40 / intra_refresh=0 / rc_lookahead=60 / rc=2pass / mbtree=1 / bitrate=2652 / ratetol=1.0 / qcomp=0.65 / qpmin=0 / qpmax=39 / qpstep=4 / cplxblur=20.0 / qblur=0.5 / ip_ratio=1.40 / aq=1:1.00
Язык : English
Default : Да
Forced : Нет
Основные цвета : BT.601 PAL
Характеристики трансфера : BT.470 System B, BT.470 System G
Коэффициенты матрицы : BT.601
Аудио
Идентификатор : 2
Формат : AC-3
Формат/Информация : Audio Coding 3
Расширение режима : CM (complete main)
Параметр Endianness формата : Big
Идентификатор кодека : A_AC3
Продолжительность : 1 ч. 4 м.
Вид битрейта : Постоянный
Битрейт : 224 Кбит/сек
Каналы : 2 канала
Расположение каналов : Front: L R
Частота : 48,0 КГц
Битовая глубина : 16 бит
Метод сжатия : С потерями
Размер потока : 103 Мбайт (8%)
Язык : Russian
Default : Да
Forced : Нет

Релиз от:
Автор релиза:



   Похожие торренты   Торрент   Размер 
В этой теме нет новых непрочитанных сообщений. Пропавшая экспедиция / Золотая речка (1975-1976) DVDRip - LTarik

149 | 23

2.93 ГБ

В этой теме нет новых непрочитанных сообщений. Золотая речка (1976) DVDRip

1 | 6

2.19 ГБ

В этой теме нет новых непрочитанных сообщений. Золотая речка (1976) DVDRip

18 | 11

1.37 ГБ

В этой теме нет новых непрочитанных сообщений. Пропавшая в Довиле / La disparue de Deauville (2007) DVDRip от ExKinoRay

4 | 6

1.37 ГБ

В этой теме нет новых непрочитанных сообщений. Доклад о школьницах / Schulmadchen Report [08-09] (1975-1976) DVDRip

275 | 26

1.66 ГБ

В этой теме нет новых непрочитанных сообщений. Жестокий ручей / Злая речка / Mean Creek (2004) DVDRip от Киномагия l P2

30 | 3

1.37 ГБ

В этой теме нет новых непрочитанных сообщений. Золотая ночь / Nuit d'or (1976) SATRip | L1

108 | 24

1.12 ГБ




Вы не можете начинать темы
Вы не можете отвечать на сообщения
Вы не можете редактировать свои сообщения
Вы не можете удалять свои сообщения
Вы не можете добавлять вложения

Перейти:  
Для Мосгорсуда, Роскомнадзора и рекламодателей: mosgorsud-torrent[собачка]yandex.ru
 Вход
ppkBB3cker v.2 © 2008-2014 @ PPK
[ Time : 0.027s | 16 Queries | GZIP : Off ]
CGP output time : 0.019s | 5 Queries | GZIP : Off

Торрент трекер RUTOR.IN, Не можете зайти на rutor.org? Какой новый адрес рутор? Какое зеркало рутор? Не работает rutor.org и зеркала? Тогда наш торрент специально для вас. Rutor.in неофициальное зеркало rutor. В случае если у Вас заблокирован rutor или вдруг Вы не можете на него зайти, то Вы без труда сможете скачать бесплатно и без рекламы последние новинки кино, игр, сериалов и прочего у нас, на Rutor.in. Не нужно использовать прокси, чтобы зайти на рутор, достаточно воспользоваться нашим ресурсом. Все новые фильмы, игры, сериалы, книги и музыка за 2013 и 2014 годы через торрент бесплатно. Скачивайте фильмы в хорошем качестве, игры для пк, xbox, playstation без регистрации. У нас вы найдете новые Зарубежные сериалы и Русские сериалы 2013, 2014, 2015 годов. Оставайтесь с нами, качайте любимые фильмы, игры, сериалы, книги и музыку.