img image001 image001 image001 image001 image001 image001 image001 image001 image001 image001 image001 image001 image001 image001 image001

Planets Sun Sun Sun
Статистика раздачи
Автор: Nickolas3434 | Размер: 5.43 ГБ | Добавлен: 28 мар 2016
Раздают: 109    Качают: 20
Скачать торрент
Скачать торрент
Описание торрента

СообщениеДобавлено: 28 мар 2016 


Информация о фильме
Название: Отряд специального назначения
Год выхода: 1987
Жанр: ВОВ, военный, драма
Режиссер: Георгий Кузнецов
В ролях: Александр Михайлов, Юрий Гребенщиков, Юрий Кузнецов, Юрий Жук, Михаил Жигалов, Игорь Комаров, Борис Клюев, Наталья Тагиева, Мирдза Мартинсоне, Poмуaльд Aнсaнc
О фильме:
Во время Великой Отечественной войны в 1942 году по решению ставки Верховного главнокомандования под Ровно создаётся отряд специального назначения "Победители". Разведка — вот основная задача, поставленная перед командиром отряда Дмитрием Медведевым. Сбор разведданных под видом немецкого офицера осуществляет чекист Николай Кузнецов, известный в отряде под фамилией Грачёв. Ему удается узнать о готовящемся немецком наступлении под Курском, совершить ряд актов возмездия над фашистскими военными преступниками, но во время советского наступления в феврале 1944 года разведчик погибает на пути к линии фронта...
Страна: СССР, Свердловская киностудия
Продолжительность: 5 х ~ 01:09:43
Перевод: не требуется
Файл
Кодек: x264
Качество: SATRip-AVC
Видео: MPEG-4, ~ 2050 Кбит/с, [email protected], [email protected]
Звук: AC3, 2 ch, 192 Кбит/с

Общее
Уникальный идентификатор : 203206833125747779399052989313073557244 (0x98E036653A0CEC6E96F3EEB687602EFC)
Полное имя : R:МОИ РИПЫОтряд специального назначения_1987-SATRip-AVCОтряд специального назначения-1.mkv
Формат : Matroska
Версия формата : Version 2
Размер файла : 1,03 Гбайт
Продолжительность : 1 ч. 3 м.
Общий поток : 2324 Кбит/сек
Дата кодирования : UTC 2014-09-12 13:15:16
Программа кодирования : mkvmerge v5.2.0 ('I can't explain') built on Dec 18 2011 18:12:03
Библиотека кодирования : libebml v1.2.3 + libmatroska v1.3.0
Видео
Идентификатор : 1
Формат : AVC
Формат/Информация : Advanced Video Codec
Профиль формата : High@L4.1
Параметр CABAC формата : Да
Параметр ReFrames формата : 15 кадров
Идентификатор кодека : V_MPEG4/ISO/AVC
Продолжительность : 1 ч. 3 м.
Битрейт : 2130 Кбит/сек
Ширина : 720 пикселей
Высота : 552 пикселя
Соотношение сторон : 1,391
Соотношение сторон в оригинале : 1,393
Режим частоты кадров : Постоянный
Частота кадров : 25,000 кадров/сек
Цветовое пространство : YUV
Субдискретизация насыщенности : 4:2:0
Битовая глубина : 8 бит
Тип развёртки : Прогрессивная
Бит/(Пиксели*Кадры) : 0.214
Размер потока : 949 Мбайт (90%)
Библиотека кодирования : x264 core 142 r2431 ac76440
Настройки программы : cabac=1 / ref=15 / deblock=1:-2:-2 / analyse=0x3:0x133 / me=umh / subme=10 / psy=1 / psy_rd=1.10:0.20 / mixed_ref=1 / me_range=24 / chroma_me=1 / trellis=2 / 8x8dct=1 / cqm=0 / deadzone=21,11 / fast_pskip=0 / chroma_qp_offset=-3 / threads=12 / lookahead_threads=2 / sliced_threads=0 / nr=0 / decimate=0 / interlaced=0 / bluray_compat=0 / constrained_intra=0 / bframes=7 / b_pyramid=2 / b_adapt=2 / b_bias=0 / direct=3 / weightb=1 / open_gop=0 / weightp=2 / keyint=250 / keyint_min=25 / scenecut=40 / intra_refresh=0 / rc=2pass / mbtree=0 / bitrate=2130 / ratetol=1.0 / qcomp=0.65 / qpmin=0 / qpmax=39 / qpstep=4 / cplxblur=20.0 / qblur=0.5 / ip_ratio=1.40 / pb_ratio=1.30 / aq=1:1.00
Язык : English
Default : Да
Forced : Нет
Основные цвета : BT.601 PAL
Характеристики трансфера : BT.470 System B, BT.470 System G
Коэффициенты матрицы : BT.601
Аудио
Идентификатор : 2
Формат : AC-3
Формат/Информация : Audio Coding 3
Расширение режима : CM (complete main)
Параметр Endianness формата : Big
Идентификатор кодека : A_AC3
Продолжительность : 1 ч. 3 м.
Вид битрейта : Постоянный
Битрейт : 192 Кбит/сек
Каналы : 2 канала
Расположение каналов : Front: L R
Частота : 48,0 КГц
Битовая глубина : 16 бит
Метод сжатия : С потерями
Задержка видео : 18 мс.
Размер потока : 87,3 Мбайт (8%)
Язык : Russian
Default : Да
Forced : Нет

Релиз от:
Автор релиза:



   Похожие торренты   Торрент   Размер 
В этой теме нет новых непрочитанных сообщений. Отряд специального назначения [01-05 серия из 05] (1987) DVDRip от -=HD-NET=-

377 | 153

3.43 ГБ

В этой теме нет новых непрочитанных сообщений. Отряд специального назначения [5 серий] (1987) SATRip

26 | 9

4.37 ГБ

В этой теме нет новых непрочитанных сообщений. Военная приемка. Космос специального назначения (2015) SATRip

578 | 25

623.03 МБ

В этой теме нет новых непрочитанных сообщений. Службы специального назначения. Ближний бой / Close Quarter Battle [01x01-12] (2012) SATRip от alf62

197 | 43

3.42 ГБ

В этой теме нет новых непрочитанных сообщений. 20 лет группе специального назначения ''Вымпел'' (2001) DVDRip-AVC от -=HD-NET=-

45 | 25

430.15 МБ

В этой теме нет новых непрочитанных сообщений. Группа Альфа. Люди специального назначения (2014) HDTVRip от MediaClub

792 | 29

743.66 МБ

В этой теме нет новых непрочитанных сообщений. Группа Альфа. Люди специального назначения (2014) HDTV 1080i от MediaClub

207 | 19

4.87 ГБ




Вы не можете начинать темы
Вы не можете отвечать на сообщения
Вы не можете редактировать свои сообщения
Вы не можете удалять свои сообщения
Вы не можете добавлять вложения

Перейти:  
Для Мосгорсуда, Роскомнадзора и рекламодателей: mosgorsud-torrent[собачка]yandex.ru
 Вход
ppkBB3cker v.2 © 2008-2014 @ PPK
[ Time : 0.440s | 14 Queries | GZIP : Off ]

Торрент трекер RUTOR.IN, Не можете зайти на rutor.org? Какой новый адрес рутор? Какое зеркало рутор? Не работает rutor.org и зеркала? Тогда наш торрент специально для вас. Rutor.in неофициальное зеркало rutor. В случае если у Вас заблокирован rutor или вдруг Вы не можете на него зайти, то Вы без труда сможете скачать бесплатно и без рекламы последние новинки кино, игр, сериалов и прочего у нас, на Rutor.in. Не нужно использовать прокси, чтобы зайти на рутор, достаточно воспользоваться нашим ресурсом. Все новые фильмы, игры, сериалы, книги и музыка за 2013 и 2014 годы через торрент бесплатно. Скачивайте фильмы в хорошем качестве, игры для пк, xbox, playstation без регистрации. У нас вы найдете новые Зарубежные сериалы и Русские сериалы 2013, 2014, 2015 годов. Оставайтесь с нами, качайте любимые фильмы, игры, сериалы, книги и музыку.