img image001 image001 image001 image001 image001 image001 image001 image001 image001 image001 image001 image001 image001 image001 image001

Planets Sun Sun Sun
Статистика раздачи
Автор: Nickolas3434 | Размер: 2.17 ГБ | Добавлен: 27 мар 2016
Раздают: 2075    Качают: 49
Скачать торрент
Скачать торрент
Описание торрента

СообщениеДобавлено: 27 мар 2016 


Производство: Россия / Стрела
Жанр: комедия
Режиссер: Александр Баршак
Продюсер: Сергей Петрейков, Леонид Барац, Ростислав Хаит
Актеры: Леонид Барац, Ростислав Хаит, Александр Демидов, Камиль Ларин, Василий Уткин, Нонна Гришаева, Максим Виторган, Михаил Ефремов, Алексей Макаров, Алексей Кортнев
Описание:
Игорь Цаплин будет избираться на третий срок, а поможет ему в этом уже знакомая зрителю команда пиарщиков.

Возраст: 12+ (зрителям, достигшим 12 лет)
Дата премьеры в России: 18 февраля 2016, «UPI»
Продолжительность: 01:44:18
Качество: WEB-DLRip (H.264)
Перевод: Не требуется (Русский, iTunes)
Субтитры: Отсутствуют
Видео: AVC/H.264, 1152x484, (2.40:1), 2 608 Kbps, 23,976 fps
Аудио: AC3, 6 ch, 384 kbps - Русский
Format : Matroska
Format version : Version 4 / Version 2
File size : 2.17 GiB
Duration : 1h 44mn
Overall bit rate : 2 988 Kbps
Movie name : День выборов 2 (2016) :: AFM ::
Encoded date : UTC 2016-03-26 00:06:03
Writing application : mkvmerge v8.3.0 ('Over the Horizon') 32bit
Writing library : libebml v1.3.1 + libmatroska v1.4.2
Video
ID : 1
Format : AVC
Format/Info : Advanced Video Codec
Format profile : High@L4.1
Format settings, CABAC : Yes
Format settings, ReFrames : 10 frames
Codec ID : V_MPEG4/ISO/AVC
Duration : 1h 44mn
Bit rate : 2 608 Kbps
Width : 1 152 pixels
Height : 484 pixels
Display aspect ratio : 2.40:1
Frame rate mode : Constant
Frame rate : 25.000 fps
Color space : YUV
Chroma subsampling : 4:2:0
Bit depth : 8 bits
Scan type : Progressive
Bits/(Pixel*Frame) : 0.187
Stream size : 1.85 GiB (85%)
Writing library : x264 core 148 r2665+53 6629127 t_mod_Custom [8-bit@all X86_64]
Encoding settings : cabac=1 / ref=10 / deblock=1:-2:-1 / analyse=0x3:0x113 / me=umh / subme=10 / psy=1 / fade_compensate=0.00 / psy_rd=1.00:0.00 / mixed_ref=1 / me_range=32 / chroma_me=1 / trellis=2 / 8x8dct=1 / cqm=0 / deadzone=21,11 / fast_pskip=0 / chroma_qp_offset=-2 / threads=6 / lookahead_threads=1 / sliced_threads=0 / nr=0 / decimate=0 / interlaced=0 / bluray_compat=0 / constrained_intra=0 / fgo=0 / bframes=10 / b_pyramid=2 / b_adapt=2 / b_bias=0 / direct=3 / weightb=1 / open_gop=0 / weightp=2 / keyint=250 / keyint_min=25 / scenecut=40 / intra_refresh=0 / rc_lookahead=40 / rc=2pass / mbtree=0 / bitrate=2608 / ratetol=1.0 / qcomp=0.65 / qpmin=0:0:0 / qpmax=69:69:69 / qpstep=4 / cplxblur=20.0 / qblur=0.5 / vbv_maxrate=50000 / vbv_bufsize=62500 / nal_hrd=none / filler=0 / ip_ratio=1.35 / pb_ratio=1.30 / aq=1:1.00 / aq-sensitivity=10.00 / aq-factor=1.00:1.00:1.00 / aq2=0 / aq3=0
Language : Russian
Default : Yes
Forced : No
Audio
ID : 2
Format : AC-3
Format/Info : Audio Coding 3
Mode extension : CM (complete main)
Format settings, Endianness : Big
Codec ID : A_AC3
Duration : 1h 44mn
Bit rate mode : Constant
Bit rate : 384 Kbps
Channel(s) : 6 channels
Channel positions : Front: L C R, Side: L R, LFE
Sampling rate : 48.0 KHz
Compression mode : Lossy
Stream size : 286 MiB (13%)
Title : AC3 5.1 ~384 kbps
Language : Russian
Default : Yes
Forced : No
Menu
00:00:00.000 : en:Глава 1
00:05:12.680 : en:Глава 2
00:10:56.200 : en:Глава 3
00:16:56.600 : en:Глава 4
00:22:04.160 : en:Глава 5
00:27:38.400 : en:Глава 6
00:33:47.280 : en:Глава 7
00:39:29.440 : en:Глава 8
00:44:56.680 : en:Глава 9
00:50:17.760 : en:Глава 10
00:56:33.760 : en:Глава 11
01:01:49.280 : en:Глава 12
01:07:03.800 : en:Глава 13
01:13:17.680 : en:Глава 14
01:18:54.640 : en:Глава 15
01:25:07.960 : en:Глава 16
01:31:30.600 : en:Глава 17
01:38:11.640 : en:Глава 18

Скриншоты:

Время раздачи: 24/7



   Похожие торренты   Торрент   Размер 
В этой теме нет новых непрочитанных сообщений. День выборов 2 (2016) WEB-DLRip | КПК | iTunes

193 | 5

470.62 МБ

В этой теме нет новых непрочитанных сообщений. День выборов 2 (2016) WEB-DLRip от GeneralFilm | iTunes

631 | 6

749.37 МБ

В этой теме нет новых непрочитанных сообщений. День выборов 2 (2016) WEB-DLRip от Scarabey | iTunes

1126 | 66

745.79 МБ

В этой теме нет новых непрочитанных сообщений. День выборов 2 (2016) WEB-DLRip от Scarabey | iTunes

2925 | 172

1.45 ГБ

В этой теме нет новых непрочитанных сообщений. День выборов 2 (2016) WEB-DLRip-AVC от Scarabey | iTunes

2534 | 85

1.88 ГБ

В этой теме нет новых непрочитанных сообщений. День выборов 2 (2016) WEB-DLRip-AVC от ExKinoRay | iTunes Russia

1527 | 40

1.46 ГБ

В этой теме нет новых непрочитанных сообщений. День выборов 2 (2016) | iTunes

4047 | 50

1.46 ГБ




Вы не можете начинать темы
Вы не можете отвечать на сообщения
Вы не можете редактировать свои сообщения
Вы не можете удалять свои сообщения
Вы не можете добавлять вложения

Перейти:  
Для Мосгорсуда, Роскомнадзора и рекламодателей: mosgorsud-torrent[собачка]yandex.ru
 Вход
ppkBB3cker v.2 © 2008-2014 @ PPK
[ Time : 0.795s | 16 Queries | GZIP : Off ]

Торрент трекер RUTOR.IN, Не можете зайти на rutor.org? Какой новый адрес рутор? Какое зеркало рутор? Не работает rutor.org и зеркала? Тогда наш торрент специально для вас. Rutor.in неофициальное зеркало rutor. В случае если у Вас заблокирован rutor или вдруг Вы не можете на него зайти, то Вы без труда сможете скачать бесплатно и без рекламы последние новинки кино, игр, сериалов и прочего у нас, на Rutor.in. Не нужно использовать прокси, чтобы зайти на рутор, достаточно воспользоваться нашим ресурсом. Все новые фильмы, игры, сериалы, книги и музыка за 2013 и 2014 годы через торрент бесплатно. Скачивайте фильмы в хорошем качестве, игры для пк, xbox, playstation без регистрации. У нас вы найдете новые Зарубежные сериалы и Русские сериалы 2013, 2014, 2015 годов. Оставайтесь с нами, качайте любимые фильмы, игры, сериалы, книги и музыку.
cron