img image001 image001 image001 image001 image001 image001 image001 image001 image001 image001 image001 image001 image001 image001 image001

Planets Sun Sun Sun
Статистика раздачи
Автор: Nickolas3434 | Размер: 1.34 ГБ | Добавлен: 27 мар 2016
Раздают: 62    Качают: 3
Скачать торрент
Скачать торрент
Описание торрента

СообщениеДобавлено: 27 мар 2016 


Информация о фильме
Название: Дети партизана
Год выхода: 1954
Жанр: Приключения, детский
Режиссер: Лев Голуб, Николай Фигуровский
В ролях: Виктор Комиссаров, Наталья Защипина, Павел Волков, Павел Молчанов, Л. Мозалевская, Олег Жаков, Павел Шпрингфельд, Григорий Шпигель, Екатерина Савинова, Владимир Балашов, Л. Тимофеева, Я. Заштофт, Ю. Пашкин, Е. Бузук, В. Марсиков, Г. Судник
О фильме:
На каникулы к своему деду леснику Якубу приезжает юный суворовец Михась – сын погибшего во время войны партизана. Вместе с сестренкой Олесей они бродят по местам партизанских боев с фашистами. В это же время на расположившейся неподалеку геологоразведочной базе орудует враг – проводник Глушко, получивший задание сфотографировать секретные карты.
От себя: Фильм — режиссерский дебют сразу двоих прекрасных советских режиссеров — Льва Владимировича Голуба и Николая Николаевича Фигуровского. Невзирая на свой солидный возраст, и сегодня лента смотрится на удивление свежо и увлекательно, поверьте!..
Доп. информация:
Голуб Лев Владимирович
(29 сентября 1904 года, Екатеринослав (ныне — Днепропетровск) — 26 мая 1994 года)
Режиссер, сценарист. Народный артист Белорусской ССР (1964); Заслуженный деятель искусств ПНР (1975).
Работал режиссером «Совкино» (1928—1934), Одесской (1934—1937) и Киевской (1937—1938) киностудий, Московской к/ст научно-популярных фильмов (1938—1940), Минской к/ст (1940—1941), «Мосфильм» (1941), ЦОКСа (1941—1943), Новосибирской к/ст научно-популярных фильмов (1943—1946), к/ст «Беларусьфильм» (с 1946). Художественный руководитель учебной студии киноактера при Белорусском театрально-художественном институте (с 1959). Поставил ряд документальных и научно-популярных фильмов.
По праву считается основателем белорусского детского кинематографа.
1960 — ВКФ (Первая премия по разделу детских фильмов, фильм "Девочка ищет отца")
1960 — КФ республик Прибалтики, Белоруссии в Риге (Премия за лучшую режиссуру, фильм "Девочка ищет отца")
1965 — МКФ для детей и юношества в Готвальдове (Приз ЦК Чехословацкого Союза молодежи, фильм "Пущик едет в Прагу")
1965 — МКФ фильмов о семье в Виченце (Диплом и "Золотая пластина", фильм "Девочка ищет отца")
1968 — КФ республик Прибалтики, Белоруссии и Молдавии (Специальный диплом "За плодотворную работу в области детского кино", фильм "Анютина дорога")

(1954) Дети партизана — (Приключения)
(1959) Девочка ищет отца — (Драма)
(1962) Улица младшего сына — (Военный)
(1965) Пужчик едет в Прагу (Семейный)
(1967) Анютина дорога — (Драма)
(1971) Полонез Огинского — (Приключения)
(1976) Borisek — malý serzhant (Семейный)

Фигуровский Николай Николаевич
(7 декабря 1923 года, Чухлома, Костромская область — 15 июня 2003 года)
Сценарист, режиссер, актер. Заслуженный деятель искусств Белорусской ССР (1964); Лауреат Государственной премии Узбекской ССР имени Хамзы (1977, за сценарий фильма «Повесть о двух солдатах»).
Окончил режиссерский факультет ВГИКа (1951, мастерская И.Савченко).
С 1953 — режиссер киностудии «Беларусьфильм». Преподавал сценарное мастерство во ВГИКе.
Режисcерские работы:
(1954) Дети партизана — (Приключения)
(1958) Часы остановились в полночь — (Приключения)
(1960) Весенние грозы — (Киноповесть)
Сценарии:
(1957) Огненные версты — (Приключения)
(1958) Часы остановились в полночь — (Приключения)
(1960) Весенние грозы — (Киноповесть)
(1961) Когда деревья были большими — (Драма)
(1961) Командировка — (Киноповесть)
(1963) Случай в Даш-Кале — (Драма)
(1965) Три времени года — (Киноповесть)
(1965) Ракеты не должны взлететь — (Киноповесть)
(1967) Десятый шаг — (Приключения)
(1968) Весна на Одере — (Военный)
(1969) Преступление и наказание — (Драма)
(1971) Рудобельская республика — (Исторический / Биографический)
(1971) Море в огне — (Военный)
(1976) Повесть о двух солдатах — (Военный)
(1976) Рудин — (Мелодрама)
(1977) Поединок в тайге — (Приключения)
(1984) Репортаж с линии огня — (Киноповесть)


Запись потока *.ts с наземного цифрового телеканала "Беларусь 3", ремукс в *.mkv программой VideoReDo.
Синхронизация звука без перекодировки mkvmerge v8.5.1
Страна: СССР
Студия: Беларусьфильм (в титрах: Белорусьфильм)
Продолжительность: 01:17:07
Перевод: не нужен
Файл
Кодек: AVC (H264)
Качество: DVB
Видео: AVC (H264), 720x576 (4:3), 25 fps, 2 190 Kbps
Звук: MP2, 256 kbps, 2 channels, 48 kHz
Семпл
Код:
General
Unique ID                      : 191851977241176944946830146236875545926 (0x905558C6F56A4512917C1A017E201D46)
Complete name                  : D:Новая  земля 2Художественные фильмыДети партизана (1954)Дети партизана_1954.mkv
Format                         : Matroska
Format version                 : Version 4 / Version 2
File size                      : 1.34 GiB
Duration                       : 1h 17mn
Overall bit rate               : 2 496 Kbps
Encoded date                   : UTC 2016-03-26 20:45:29
Writing application            : mkvmerge v8.5.1 ('Where you lead I will follow') 32bit
Writing library                : libebml v1.3.3 + libmatroska v1.4.4
Video
ID                             : 1
Format                         : AVC
Format/Info                    : Advanced Video Codec
Format profile                 : Main@L3.0
Format settings, CABAC         : Yes
Format settings, ReFrames      : 4 frames
Codec ID                       : V_MPEG4/ISO/AVC
Duration                       : 1h 17mn
Bit rate                       : 2 190 Kbps
Width                          : 720 pixels
Height                         : 576 pixels
Display aspect ratio           : 4:3
Original display aspect ratio  : 4:3
Frame rate mode                : Constant
Frame rate                     : 25.000 fps
Standard                       : PAL
Color space                    : YUV
Chroma subsampling             : 4:2:0
Bit depth                      : 8 bits
Scan type                      : MBAFF
Scan order                     : Top Field First
Bits/(Pixel*Frame)             : 0.211
Stream size                    : 1.18 GiB (88%)
Default                        : Yes
Forced                         : No
Color primaries                : BT.601 PAL
Transfer characteristics       : BT.470 System B, BT.470 System G
Matrix coefficients            : BT.601
Color range                    : Limited
DURATION                       : 01:17:07.040000000
NUMBER_OF_FRAMES               : 115676
NUMBER_OF_BYTES                : 1294503992
_STATISTICS_WRITING_APP        : mkvmerge v8.5.1 ('Where you lead I will follow') 32bit
_STATISTICS_WRITING_DATE_UTC   : 2016-03-26 20:45:29
_STATISTICS_TAGS               : BPS DURATION NUMBER_OF_FRAMES NUMBER_OF_BYTES
Audio
ID                             : 2
Format                         : MPEG Audio
Format version                 : Version 1
Format profile                 : Layer 2
Codec ID                       : A_MPEG/L2
Codec ID/Hint                  : MP2
Duration                       : 1h 17mn
Bit rate mode                  : Constant
Bit rate                       : 256 Kbps
Channel(s)                     : 2 channels
Sampling rate                  : 48.0 KHz
Compression mode               : Lossy
Delay relative to video        : 200ms
Stream size                    : 141 MiB (10%)
Language                       : English
Default                        : Yes
Forced                         : No
DURATION                       : 01:17:07.032000000
NUMBER_OF_FRAMES               : 192793
NUMBER_OF_BYTES                : 148065024
_STATISTICS_WRITING_APP        : mkvmerge v8.5.1 ('Where you lead I will follow') 32bit
_STATISTICS_WRITING_DATE_UTC   : 2016-03-26 20:45:29
_STATISTICS_TAGS               : BPS DURATION NUMBER_OF_FRAMES NUMBER_OF_BYTES





   Похожие торренты   Торрент   Размер 
В этой теме нет новых непрочитанных сообщений. Кто смеётся последним (1954) DVB от AND03AND

90 | 6

1.63 ГБ

В этой теме нет новых непрочитанных сообщений. Дети тишины / Дети меньшего бога / Children of a Lesser God (1986) WEBRip 1080p | P2

7 | 4

12.31 ГБ

В этой теме нет новых непрочитанных сообщений. Осторожно! Дети играют / Дети каннибалы / Beware! Children at Play (1989) DVDRip-AVC от olegek70

7 | 60

1.37 ГБ

В этой теме нет новых непрочитанных сообщений. Дети света. Дети Индиго (2006) DVDRip

15 | 2

1.09 ГБ

В этой теме нет новых непрочитанных сообщений. Они / Them! (1954) DVDRip

2 | 2

1.37 ГБ

В этой теме нет новых непрочитанных сообщений. Кортик (1954) DVDRip

68 | 4

1.37 ГБ

В этой теме нет новых непрочитанных сообщений. Они / Them! (1954) HDRip-AVC от ExKinoRay | P2

14 | 1

2.01 ГБ




Вы не можете начинать темы
Вы не можете отвечать на сообщения
Вы не можете редактировать свои сообщения
Вы не можете удалять свои сообщения
Вы не можете добавлять вложения

Перейти:  
Для Мосгорсуда, Роскомнадзора и рекламодателей: mosgorsud-torrent[собачка]yandex.ru
 Вход
ppkBB3cker v.2 © 2008-2014 @ PPK
[ Time : 0.036s | 15 Queries | GZIP : Off ]

cron