img image001 image001 image001 image001 image001 image001 image001 image001 image001 image001 image001 image001 image001 image001 image001

Planets Sun Sun Sun
Статистика раздачи
Автор: Nickolas3434 | Размер: 1.4 ГБ | Добавлен: 28 мар 2016
Раздают: 21    Качают: 4
Скачать торрент
Скачать торрент
Описание торрента

СообщениеДобавлено: 28 мар 2016 


Информация о фильме
Название: Возьму твою боль
Год выхода: 1980
Жанр: Драма, экранизация
Режиссер: Михаил Пташук
В ролях: Владимир Гостюхин, Галина Яцкина, Ирина Малышева, Александр Чередник, Любовь Виролайнен, Борис Петрунин, Т. Берташ, Иван Мацкевич, Пётр Юрченков (ст.), Александр Короткевич, Виктор Тарасов, Владимир Антонов, Валерий Филатов, Александр Голобородько, Игорь Андреев, Лилия Давидович, Стефания Станюта, Ольга Лысенко
О фильме:
По одноименному роману Ивана Шамякина.
В деревню после длительного заключения возвращается полицай Шишкович, повинный в смерти односельчан. Иван, у которого сестра и мать погибли по вине полицая, не может спокойно перенести его возвращение в те места, где бывшего полицая все ненавидят и презирают. Чтобы не допустить новой жертвы преступника, а может, чтобы спасти мужа от преступления, жена Ивана убивает Шишковича...
Доп. информация:
Сценарист: Иван Шамякин
Оператор: Виталий Николаев
Композитор: Сергей Кортес
Художник: Юрий Альбицкий
Премьера: ноябрь 1981

Запись потока *.ts с наземного цифрового телеканала "Беларусь 3", ремукс в *.mkv программой VideoReDo.
Синхронизация звука без перекодировки mkvmerge v8.5.1
Страна: СССР
Студия: Беларусьфильм
Продолжительность: 01:20:52
Перевод: не требует
Файл
Кодек: AVC (H264)
Качество: DVB
Видео: AVC (H264), 720x576 (4:3), 25 fps, 2 175 Kbps
Звук: MP2, 256 kbps, 2 channels, 48 kHz
Семпл
Код:
General
Unique ID                      : 172236746614161467729669132004937439897 (0x8193973D8ABAB2C092080DAD60C81A99)
Complete name                  : D:Новая  земля 2Художественные фильмыВозьму твою боль (1980)Возьму твою боль (1980).mkv
Format                         : Matroska
Format version                 : Version 4 / Version 2
File size                      : 1.40 GiB
Duration                       : 1h 20mn
Overall bit rate               : 2 481 Kbps
Encoded date                   : UTC 2016-03-21 20:53:25
Writing application            : mkvmerge v8.5.1 ('Where you lead I will follow') 32bit
Writing library                : libebml v1.3.3 + libmatroska v1.4.4
Video
ID                             : 1
Format                         : AVC
Format/Info                    : Advanced Video Codec
Format profile                 : Main@L3.0
Format settings, CABAC         : Yes
Format settings, ReFrames      : 4 frames
Codec ID                       : V_MPEG4/ISO/AVC
Duration                       : 1h 20mn
Bit rate                       : 2 175 Kbps
Width                          : 720 pixels
Height                         : 576 pixels
Display aspect ratio           : 4:3
Original display aspect ratio  : 4:3
Frame rate mode                : Constant
Frame rate                     : 25.000 fps
Standard                       : PAL
Color space                    : YUV
Chroma subsampling             : 4:2:0
Bit depth                      : 8 bits
Scan type                      : MBAFF
Scan order                     : Top Field First
Bits/(Pixel*Frame)             : 0.210
Stream size                    : 1.23 GiB (88%)
Default                        : Yes
Forced                         : No
Color primaries                : BT.601 PAL
Transfer characteristics       : BT.470 System B, BT.470 System G
Matrix coefficients            : BT.601
Color range                    : Limited
DURATION                       : 01:20:51.880000000
NUMBER_OF_FRAMES               : 121297
NUMBER_OF_BYTES                : 1348051508
_STATISTICS_WRITING_APP        : mkvmerge v8.5.1 ('Where you lead I will follow') 32bit
_STATISTICS_WRITING_DATE_UTC   : 2016-03-21 20:53:25
_STATISTICS_TAGS               : BPS DURATION NUMBER_OF_FRAMES NUMBER_OF_BYTES
Audio
ID                             : 2
Format                         : MPEG Audio
Format version                 : Version 1
Format profile                 : Layer 2
Codec ID                       : A_MPEG/L2
Codec ID/Hint                  : MP2
Duration                       : 1h 20mn
Bit rate mode                  : Constant
Bit rate                       : 256 Kbps
Channel(s)                     : 2 channels
Sampling rate                  : 48.0 KHz
Compression mode               : Lossy
Delay relative to video        : 250ms
Stream size                    : 148 MiB (10%)
Language                       : English
Default                        : Yes
Forced                         : No
DURATION                       : 01:20:51.864000000
NUMBER_OF_FRAMES               : 202161
NUMBER_OF_BYTES                : 155259648
_STATISTICS_WRITING_APP        : mkvmerge v8.5.1 ('Where you lead I will follow') 32bit
_STATISTICS_WRITING_DATE_UTC   : 2016-03-21 20:53:25
_STATISTICS_TAGS               : BPS DURATION NUMBER_OF_FRAMES NUMBER_OF_BYTES
 





   Похожие торренты   Торрент   Размер 
В этой теме нет новых непрочитанных сообщений. Троянский конь / Амнистия (1980) SATRip от AND03AND

63 | 15

1.44 ГБ

В этой теме нет новых непрочитанных сообщений. Я возьму тебя туда… / I'll Take You There (1999) DVDRip | A

92 | 10

1.47 ГБ

В этой теме нет новых непрочитанных сообщений. Олег Рой – Фантомная боль (2015) MP3

227 | 8

477.71 МБ

В этой теме нет новых непрочитанных сообщений. Боль / Hurt (2009) DVDRip

21 | 4

1.37 ГБ

В этой теме нет новых непрочитанных сообщений. VA - Музыкотерапия. Головная боль (2011) MP3

34 | 1

866.4 МБ

В этой теме нет новых непрочитанных сообщений. Боль [01-02 из 02] (2011) SATRip от RiperAM

1 | 1

856.25 МБ

В этой теме нет новых непрочитанных сообщений. Боль моя - Чернобыль (2011) TVRip от tenow

9 | 6

249.55 МБ




Вы не можете начинать темы
Вы не можете отвечать на сообщения
Вы не можете редактировать свои сообщения
Вы не можете удалять свои сообщения
Вы не можете добавлять вложения

Перейти:  
Для Мосгорсуда, Роскомнадзора и рекламодателей: mosgorsud-torrent[собачка]yandex.ru
 Вход
ppkBB3cker v.2 © 2008-2014 @ PPK
[ Time : 0.020s | 14 Queries | GZIP : Off ]

Торрент трекер RUTOR.IN, Не можете зайти на rutor.org? Какой новый адрес рутор? Какое зеркало рутор? Не работает rutor.org и зеркала? Тогда наш торрент специально для вас. Rutor.in неофициальное зеркало rutor. В случае если у Вас заблокирован rutor или вдруг Вы не можете на него зайти, то Вы без труда сможете скачать бесплатно и без рекламы последние новинки кино, игр, сериалов и прочего у нас, на Rutor.in. Не нужно использовать прокси, чтобы зайти на рутор, достаточно воспользоваться нашим ресурсом. Все новые фильмы, игры, сериалы, книги и музыка за 2013 и 2014 годы через торрент бесплатно. Скачивайте фильмы в хорошем качестве, игры для пк, xbox, playstation без регистрации. У нас вы найдете новые Зарубежные сериалы и Русские сериалы 2013, 2014, 2015 годов. Оставайтесь с нами, качайте любимые фильмы, игры, сериалы, книги и музыку.