img image001 image001 image001 image001 image001 image001 image001 image001 image001 image001 image001 image001 image001 image001 image001

Planets Sun Sun Sun
Статистика раздачи
Автор: Nickolas3434 | Размер: 2.99 ГБ | Добавлен: 28 мар 2016
Раздают: 155    Качают: 34
Скачать торрент
Скачать торрент
Описание торрента

СообщениеДобавлено: 28 мар 2016 


Информация о фильме
Название: Приморский бульвар
Год выхода: 1988
Жанр: Мюзикл, комедия
Режиссер: Александр Полынников
В ролях: Валентина Талызина, Олег Федулов, Оксана Фомичева, Андрей Градов, Ольга Кабо, Александр Кузнецов, Валентина Легкоступова, Анна Назарьева, Анатолий Равикович, Марина Шиманская
О фильме:
В родной город Одессу из Советской армии возвращается ефрейтор запаса Саша Ермоленко. Догоняя понравившуюся ему девушку Лену, Александр становится виновником дорожного происшествия. С этого момента начинаются его невероятные приключения. Пострадавший в аварии сценарист Огоньков, выяснив причину случившегося, соглашается не брать с Саши денег на ремонт машины при одном условии: тот должен помочь ему придумать увлекательный сюжет для рекламного ролика, заказанного Госстрахом, и сюжетом этого ролика должна стать его история отношений с той самой девушкой Леной. Саша разыскивает Лену, но оказывается, что у Лены есть жених и через неделю их свадьба. Товарищ Огоньков приказывает своему «должнику» начать ухаживать за девушкой и расстроить свадьбу Лены для придания остроты сюжета их будущего фильма. Но тут выясняется, что Лена – его собственная дочь...
Страна: СССР, Одесская киностудия
Продолжительность: 02:06:50
Перевод: не требуется
Файл
Кодек: x264
Качество: DVDRip-AVC
Видео: MPEG-4 AVC, ~ 2992 Кбит/с, [email protected]
Звук: AC3, 6 ch, 384 Кбит/с

Общее
Уникальный идентификатор : 171331453834652821790473488599303963723 (0x80E53CDC3CC4E74AA430EE1BF86DC44B)
Полное имя : R:МОИ РИПЫПриморский бульвар_1988-DVDRip-AVCPart-1.mkv
Формат : Matroska
Версия формата : Version 2
Размер файла : 1,50 Гбайт
Продолжительность : 1 ч. 3 м.
Общий поток : 3378 Кбит/сек
Дата кодирования : UTC 2014-12-29 15:16:30
Программа кодирования : mkvmerge v5.2.0 ('I can't explain') built on Dec 18 2011 18:12:03
Библиотека кодирования : libebml v1.2.3 + libmatroska v1.3.0
Видео
Идентификатор : 1
Формат : AVC
Формат/Информация : Advanced Video Codec
Профиль формата : High@L4.1
Параметр CABAC формата : Да
Параметр ReFrames формата : 13 кадров
Идентификатор кодека : V_MPEG4/ISO/AVC
Продолжительность : 1 ч. 3 м.
Битрейт : 2992 Кбит/сек
Ширина : 706 пикселей
Высота : 572 пикселя
Соотношение сторон : 4:3
Соотношение сторон в оригинале : 4:3
Режим частоты кадров : Постоянный
Частота кадров : 25,000 кадров/сек
Цветовое пространство : YUV
Субдискретизация насыщенности : 4:2:0
Битовая глубина : 8 бит
Тип развёртки : Прогрессивная
Бит/(Пиксели*Кадры) : 0.296
Размер потока : 1,30 Гбайт (87%)
Библиотека кодирования : x264 core 142 r2431 ac76440
Настройки программы : cabac=1 / ref=13 / deblock=1:-2:-2 / analyse=0x3:0x133 / me=umh / subme=10 / psy=1 / psy_rd=1.05:0.07 / mixed_ref=1 / me_range=24 / chroma_me=1 / trellis=2 / 8x8dct=1 / cqm=0 / deadzone=21,11 / fast_pskip=0 / chroma_qp_offset=-3 / threads=12 / lookahead_threads=2 / sliced_threads=0 / nr=0 / decimate=0 / interlaced=0 / bluray_compat=0 / constrained_intra=0 / bframes=7 / b_pyramid=2 / b_adapt=2 / b_bias=0 / direct=3 / weightb=1 / open_gop=0 / weightp=2 / keyint=250 / keyint_min=25 / scenecut=40 / intra_refresh=0 / rc=2pass / mbtree=0 / bitrate=2992 / ratetol=1.0 / qcomp=0.60 / qpmin=0 / qpmax=39 / qpstep=4 / cplxblur=20.0 / qblur=0.5 / ip_ratio=1.40 / pb_ratio=1.30 / aq=1:0.90
Язык : English
Default : Да
Forced : Нет
Основные цвета : BT.601 PAL
Характеристики трансфера : BT.470 System B, BT.470 System G
Коэффициенты матрицы : BT.601
Аудио
Идентификатор : 2
Формат : AC-3
Формат/Информация : Audio Coding 3
Расширение режима : CM (complete main)
Параметр Endianness формата : Big
Идентификатор кодека : A_AC3
Продолжительность : 1 ч. 3 м.
Вид битрейта : Постоянный
Битрейт : 384 Кбит/сек
Каналы : 6 каналов
Расположение каналов : Front: L C R, Side: L R, LFE
Частота : 48,0 КГц
Битовая глубина : 16 бит
Метод сжатия : С потерями
Размер потока : 174 Мбайт (11%)
Язык : Russian
Default : Да
Forced : Нет

Релиз от:
Автор релиза:



   Похожие торренты   Торрент   Размер 
В этой теме нет новых непрочитанных сообщений. Приморский бульвар (1988) DVDRip

61 | 15

2.18 ГБ

В этой теме нет новых непрочитанных сообщений. Приморский бульвар (1988) DVDRip

14 | 4

1.37 ГБ

В этой теме нет новых непрочитанных сообщений. Приморский бульвар (1988) DVDRip-AVC от UAGet

3 | 3

2.13 ГБ

В этой теме нет новых непрочитанных сообщений. Приморский бульвар (1988) DVD9

6 | 2

6.39 ГБ

В этой теме нет новых непрочитанных сообщений. Ромовый бульвар / Boulevard du rhum (1971) DVDRip от ExKinoRay

3 | 2

2.04 ГБ

В этой теме нет новых непрочитанных сообщений. Куколка (1988) DVDRip от ExKinoRay

130 | 21

1.77 ГБ

В этой теме нет новых непрочитанных сообщений. Медведь / L' Ours (1988) DVDRip - ExKinoRay

38 | 3

1.37 ГБ




Вы не можете начинать темы
Вы не можете отвечать на сообщения
Вы не можете редактировать свои сообщения
Вы не можете удалять свои сообщения
Вы не можете добавлять вложения

Перейти:  
Для Мосгорсуда, Роскомнадзора и рекламодателей: mosgorsud-torrent[собачка]yandex.ru
 Вход
ppkBB3cker v.2 © 2008-2014 @ PPK
[ Time : 0.026s | 15 Queries | GZIP : Off ]

Торрент трекер RUTOR.IN, Не можете зайти на rutor.org? Какой новый адрес рутор? Какое зеркало рутор? Не работает rutor.org и зеркала? Тогда наш торрент специально для вас. Rutor.in неофициальное зеркало rutor. В случае если у Вас заблокирован rutor или вдруг Вы не можете на него зайти, то Вы без труда сможете скачать бесплатно и без рекламы последние новинки кино, игр, сериалов и прочего у нас, на Rutor.in. Не нужно использовать прокси, чтобы зайти на рутор, достаточно воспользоваться нашим ресурсом. Все новые фильмы, игры, сериалы, книги и музыка за 2013 и 2014 годы через торрент бесплатно. Скачивайте фильмы в хорошем качестве, игры для пк, xbox, playstation без регистрации. У нас вы найдете новые Зарубежные сериалы и Русские сериалы 2013, 2014, 2015 годов. Оставайтесь с нами, качайте любимые фильмы, игры, сериалы, книги и музыку.