img image001 image001 image001 image001 image001 image001 image001 image001 image001 image001 image001 image001 image001 image001 image001

Planets Sun Sun Sun
Статистика раздачи
Автор: Nickolas3434 | Размер: 3.05 ГБ | Добавлен: 28 мар 2016
Раздают: 820    Качают: 41
Скачать торрент
Скачать торрент
Описание торрента

СообщениеДобавлено: 28 мар 2016 


Информация о фильме
Название: Тряпичный союз
Оригинальное название: Тряпичный союз
Год выхода: 2015
Жанр: комедия, драма
Режиссер: Михаил Местецкий
В ролях: Иван Янковский, Александр Паль, Василий Буткевич, Павел Чинарёв, Анастасия Пронина, Федор Лавров, Елена Нестерова, Владислав Ветров, Кирилл Кяро, Андрей Крыжний
О фильме: Жизнь тихого подростка Вани меняется после знакомства с тремя очень странными парнями. Спортсмены, хулиганы, мечтатели, они называют себя «Тряпичный Союз» и верят, что изменят весь мир. Очарованный новой дружбой, Ваня поселяет парней у себя на даче и всеми силами пытается стать частью их «величайшей организации». Но у соседской девочки Саши свои планы на эту компанию.

Выпущено: Россия
Продолжительность: 01:38:40
Озвучивание: Оригинал [iTunes]
Файл
Формат: MKV
Качество: WEB-DL 720p
Видео: MPEG-4 AVC, 3953 kb/s, 1280x720
Аудио: AC3, 384 kb/s (6 ch)
Format : Matroska
Format version : Version 4 / Version 2
File size : 3.05 GiB
Duration : 1h 38mn
Overall bit rate : 4 425 Kbps
Encoded date : UTC 2016-03-27 18:39:24
Writing application : mkvmerge v8.3.0 ('Over the Horizon') 64bit
Writing library : libebml v1.3.1 + libmatroska v1.4.2
Video
ID : 1
Format : AVC
Format/Info : Advanced Video Codec
Format profile : High@L3.1
Format settings, CABAC : No
Format settings, ReFrames : 2 frames
Codec ID : V_MPEG4/ISO/AVC
Duration : 1h 38mn
Bit rate : 3 953 Kbps
Width : 1 280 pixels
Height : 720 pixels
Display aspect ratio : 16:9
Frame rate mode : Constant
Frame rate : 24.000 fps
Color space : YUV
Chroma subsampling : 4:2:0
Bit depth : 8 bits
Scan type : Progressive
Bits/(Pixel*Frame) : 0.179
Stream size : 2.72 GiB (89%)
Language : English
Default : Yes
Forced : No
Color range : Limited
Color primaries : BT.709
Transfer characteristics : BT.709
Matrix coefficients : BT.709
Audio
ID : 2
Format : AC-3
Format/Info : Audio Coding 3
Mode extension : CM (complete main)
Format settings, Endianness : Big
Codec ID : A_AC3
Duration : 1h 38mn
Bit rate mode : Constant
Bit rate : 384 Kbps
Channel(s) : 6 channels
Channel positions : Front: L C R, Side: L R, LFE
Sampling rate : 48.0 KHz
Bit depth : 16 bits
Compression mode : Lossy
Stream size : 271 MiB (9%)
Language : Russian
Default : Yes
Forced : No
Menu
00:00:00.000 : en:Глава 1
00:05:41.416 : en:Глава 2
00:10:54.499 : en:Глава 3
00:16:25.207 : en:Глава 4
00:21:54.582 : en:Глава 5
00:27:59.415 : en:Глава 6
00:33:46.206 : en:Глава 7
00:39:19.747 : en:Глава 8
00:44:42.580 : en:Глава 9
00:51:07.496 : en:Глава 10
00:56:24.496 : en:Глава 11
01:02:09.329 : en:Глава 12
01:07:27.620 : en:Глава 13
01:13:03.953 : en:Глава 14
01:18:55.036 : en:Глава 15
01:25:27.869 : en:Глава 16
01:31:48.119 : en:Глава 17



   Похожие торренты   Торрент   Размер 
В этой теме нет новых непрочитанных сообщений. Тряпичный союз (2015) WEB-DL 1080p | iTunes

1824 | 171

3.85 ГБ

В этой теме нет новых непрочитанных сообщений. Тряпичный союз (2015) WEB-DLRip | iTunes

4302 | 161

1.46 ГБ

В этой теме нет новых непрочитанных сообщений. Тряпичный союз (2015) WEB-DLRip-AVC | iTunes

549 | 20

1.88 ГБ

В этой теме нет новых непрочитанных сообщений. Тряпичный союз (2015) WEB-DRip от Scarabey | iTunes

409 | 24

1.44 ГБ

В этой теме нет новых непрочитанных сообщений. Тряпичный союз (2015) WEB-DLRip от Bathory | iTunes

808 | 64

745.69 МБ

В этой теме нет новых непрочитанных сообщений. Новый Союз - Союз Нерушимый (2011) MP3

10 | 4

127.44 МБ

В этой теме нет новых непрочитанных сообщений. Сборник - Союз 56 (2015) MP3

395 | 49

335.66 МБ




Вы не можете начинать темы
Вы не можете отвечать на сообщения
Вы не можете редактировать свои сообщения
Вы не можете удалять свои сообщения
Вы не можете добавлять вложения

Перейти:  
Для Мосгорсуда, Роскомнадзора и рекламодателей: mosgorsud-torrent[собачка]yandex.ru
 Вход
ppkBB3cker v.2 © 2008-2014 @ PPK
[ Time : 0.037s | 15 Queries | GZIP : Off ]

cron