img image001 image001 image001 image001 image001 image001 image001 image001 image001 image001 image001 image001 image001 image001 image001

Planets Sun Sun Sun
Статистика раздачи
Автор: PriZraK | Размер: 7.92 ГБ | Добавлен: 03 апр 2016
Раздают: 725    Качают: 121
Скачать торрент
Скачать торрент
Описание торрента

СообщениеДобавлено: 03 апр 2016 


Информация о фильме
Название: Чемпионы: Быстрее. Выше. Сильнее
Оригинальное название: Чемпионы: Быстрее. Выше. Сильнее
Год выхода: 2016
Жанр: Драма, спорт
Режиссёр: Артем Аксененко
В ролях: Сергей Бондарчук, Евгений Пронин, Кристина Асмус, Егор Корешков, Александр Робак, Дарья Екамасова, Сергей Сосновский, Виктор Хориняк, Джемал Тетруашвили, Кристина Шаповалова
О фильме: В мире их называли «Асфальтоукладчик», «Королева брусьев» и «Русская торпеда». Борец Александр Карелин, гимнастка Светлана Хоркина и пловец Александр Попов — реальные истории трех легендарных российских спортсменов, на общем счету которых 9 золотых олимпийских медалей и больше тысячи побед! У каждого был свой путь, своя уникальная драматическая история восхождения. Три яркие новеллы, основанные на реальных событиях, расскажут о том, что осталось за кадром спортивной хроники и каким был путь к высшему спортивному достижению — Олимпийский чемпион. Они стали легендами мирового спорта и дали возможность всей стране сказать «Мы победили!».

Выпущено: Россия, Enjoy Movies
Продолжительность: 01:43:48
Перевод: Не требуется
Файл
Формат: MKV
Кодек: MPEG-4 AVC
Качество: BDRip (1080p) [Исходник: Blu-ray RUS 1080p AVC DTS-HD 5.1]
Видео: MPEG-4 AVC, 1920x816 (2.35:1), 9421 Кбит/с, 24 кадр/с, 0.250 bit/pixel
Аудио: Русский, DTS, 48000 Гц, 1510 Кбит/с, 6 каналов (5.1) - Оригинал
Субтитры: Английские (полные) SRT
Навигация по главам: Есть (Сохранены оригинальные чаптеры, как на Blu-ray)

General
Unique ID : 190825774382988491914557009379933932790 (0x8F8FB511E882470687DB80551F6DCCF6)
Complete name : Chempiony.Bystree.Vyshe.Sil'nee.2016.BDRip.1080p.mkv
Format : Matroska
Format version : Version 4 / Version 2
File size : 7.92 GiB
Duration : 1h 43mn
Overall bit rate : 10.9 Mbps
Movie name : Чемпионы: Быстрее. Выше. Сильнее (2016) BDRip (1080p) от ivandubskoj
Encoded date : UTC 2016-03-31 19:56:54
Writing application : mkvmerge v7.8.0 ('River Man') 64bit built on Mar 27 2015 16:31:37
Writing library : libebml v1.3.1 + libmatroska v1.4.2
Video
ID : 1
Format : AVC
Format/Info : Advanced Video Codec
Format profile : High@L4.1
Format settings, CABAC : Yes
Format settings, ReFrames : 5 frames
Codec ID : V_MPEG4/ISO/AVC
Duration : 1h 43mn
Bit rate : 9 421 Kbps
Width : 1 920 pixels
Height : 816 pixels
Display aspect ratio : 2.35:1
Frame rate mode : Constant
Frame rate : 24.000 fps
Color space : YUV
Chroma subsampling : 4:2:0
Bit depth : 8 bits
Scan type : Progressive
Bits/(Pixel*Frame) : 0.251
Stream size : 6.67 GiB (84%)
Title : Чемпионы: Быстрее. Выше. Сильнее (2016)
Writing library : x264 core 146 r2538 121396c
Encoding settings : cabac=1 / ref=5 / deblock=1:-3:3 / analyse=0x3:0x113 / me=umh / subme=10 / psy=1 / psy_rd=1.00:0.00 / mixed_ref=1 / me_range=32 / chroma_me=1 / trellis=2 / 8x8dct=1 / cqm=0 / deadzone=21,11 / fast_pskip=0 / chroma_qp_offset=-2 / threads=6 / lookahead_threads=1 / sliced_threads=0 / nr=0 / decimate=0 / interlaced=0 / bluray_compat=0 / constrained_intra=0 / bframes=6 / b_pyramid=2 / b_adapt=2 / b_bias=0 / direct=3 / weightb=1 / open_gop=0 / weightp=2 / keyint=240 / keyint_min=23 / scenecut=40 / intra_refresh=0 / rc_lookahead=40 / rc=2pass / mbtree=1 / bitrate=9421 / ratetol=1.0 / qcomp=0.60 / qpmin=0 / qpmax=69 / qpstep=4 / cplxblur=20.0 / qblur=0.5 / vbv_maxrate=50000 / vbv_bufsize=62500 / nal_hrd=none / filler=0 / ip_ratio=1.40 / aq=1:1.00
Language : Russian
Default : Yes
Forced : No
Audio
ID : 2
Format : DTS
Format/Info : Digital Theater Systems
Mode : 16
Format settings, Endianness : Big
Codec ID : A_DTS
Duration : 1h 43mn
Bit rate mode : Constant
Bit rate : 1 509 Kbps
Channel(s) : 6 channels
Channel positions : Front: L C R, Side: L R, LFE
Sampling rate : 48.0 KHz
Bit depth : 24 bits
Compression mode : Lossy
Stream size : 1.09 GiB (14%)
Title : Original
Language : Russian
Default : Yes
Forced : No
Text
ID : 3
Format : UTF-8
Codec ID : S_TEXT/UTF8
Codec ID/Info : UTF-8 Plain Text
Title : Full
Language : English
Default : No
Forced : No
Menu
00:00:00.000 : ru:Chapter 1
00:01:07.208 : ru:Chapter 2
00:14:04.333 : ru:Chapter 3
00:27:26.333 : ru:Chapter 4
00:40:01.250 : ru:Chapter 5
00:49:56.958 : ru:Chapter 6
01:00:13.250 : ru:Chapter 7
01:14:04.666 : ru:Chapter 8
01:27:28.541 : ru:Chapter 9




Автор рипа - ivandubskoj



   Похожие торренты   Торрент   Размер 
В этой теме нет новых непрочитанных сообщений. Чемпионы: Быстрее. Выше. Сильнее (2016) Blu-ray Remux 1080p от ivandubskoj | Лицензия

115 | 25

17.49 ГБ

В этой теме нет новых непрочитанных сообщений. Чемпионы: Быстрее. Выше. Сильнее (2016) BDRip 720p от ivandubskoj | Лицензия

1093 | 125

4.37 ГБ

В этой теме нет новых непрочитанных сообщений. Чемпионы: Быстрее. Выше. Сильнее (2016) Blu-ray 1080p | Лицензия

104 | 30

20.89 ГБ

В этой теме нет новых непрочитанных сообщений. Чемпионы: Быстрее. Выше. Сильнее (2016) BDRip-AVC от NNNB | Лицензия

777 | 73

2.18 ГБ

В этой теме нет новых непрочитанных сообщений. Чемпионы: Быстрее. Выше. Сильнее (2016) BDRip от Twi7ter | Лицензия

5021 | 309

1.46 ГБ

В этой теме нет новых непрочитанных сообщений. Чемпионы: Быстрее. Выше. Сильнее (2016) BDRip-AVC от R.G.Resident | Лицензия

432 | 60

1.55 ГБ

В этой теме нет новых непрочитанных сообщений. Чемпионы: Быстрее. Выше. Сильнее (2016) BDRip 720p | Лицензия

298 | 32

5 ГБ




Вы не можете начинать темы
Вы не можете отвечать на сообщения
Вы не можете редактировать свои сообщения
Вы не можете удалять свои сообщения
Вы не можете добавлять вложения

Перейти:  
Для Мосгорсуда, Роскомнадзора и рекламодателей: mosgorsud-torrent[собачка]yandex.ru
 Вход
ppkBB3cker v.2 © 2008-2014 @ PPK
[ Time : 0.043s | 17 Queries | GZIP : Off ]

Торрент трекер RUTOR.IN, Не можете зайти на rutor.org? Какой новый адрес рутор? Какое зеркало рутор? Не работает rutor.org и зеркала? Тогда наш торрент специально для вас. Rutor.in неофициальное зеркало rutor. В случае если у Вас заблокирован rutor или вдруг Вы не можете на него зайти, то Вы без труда сможете скачать бесплатно и без рекламы последние новинки кино, игр, сериалов и прочего у нас, на Rutor.in. Не нужно использовать прокси, чтобы зайти на рутор, достаточно воспользоваться нашим ресурсом. Все новые фильмы, игры, сериалы, книги и музыка за 2013 и 2014 годы через торрент бесплатно. Скачивайте фильмы в хорошем качестве, игры для пк, xbox, playstation без регистрации. У нас вы найдете новые Зарубежные сериалы и Русские сериалы 2013, 2014, 2015 годов. Оставайтесь с нами, качайте любимые фильмы, игры, сериалы, книги и музыку.