img image001 image001 image001 image001 image001 image001 image001 image001 image001 image001 image001 image001 image001 image001 image001

Planets Sun Sun Sun
Статистика раздачи
Автор: PriZraK | Размер: 1.46 ГБ | Добавлен: 02 апр 2016
Раздают: 2    Качают: 1
Скачать торрент
Скачать торрент
Описание торрента

СообщениеДобавлено: 02 апр 2016 

Страна: СССР
Производство: Ленфильм
Жанр: драма, биография, музыка
Год выпуска: 1953
Продолжительность: 01:47:02
Перевод: Не требуется
Cубтитры: нет
Оригинальная аудиодорожка: русский
Режиссер: Геннадий Казанский, Григорий Рошаль
В ролях:
Григорий Белов, Николай Черкасов, Александр Борисов, Лилия Гриценко, Виктор Хохряков, Анатолий Кузнецов (II), Лидия Сухаревская, Александр Огнивцев, Борис Коковкин, Сергей Курилов, Лидия Драновская, Анатолий Вербицкий, Татьяна Ленникова, Агаси Бабаян, Бруно Фрейндлих, Владимир Балашов, Фёдор Никитин...
Полный список актёров
Описание:
Костюмный биографический фильм о Николае Андреевиче Римском-Корсакове (1844-1908), русском композиторе, дирижере и музыкально-общественном деятеле, одном из организаторов и вдохновителей "Могучей кучки".





Источник: DVD5 R5
Качество видео: DVDRip
Формат видео: AVI
Видео: 688x512 (4:3), 25 fps, XviD ~ 1751 kbps avg, 0.199 bit/pixel
Аудио: 48 kHz, Dolby Digital AC3 2.0, 192 kbps
Раздача от:
Общее
Полное имя : Rimskiy-Korsakov.1953.DVDRip_[New-team]_by_AVP_Studio.avi
Формат : AVI
Формат/Информация : Audio Video Interleave
Размер файла : 1,46 Гбайт
Продолжительность : 1 ч. 47 м.
Общий поток : 1952 Кбит/сек
Программа кодирования : VirtualDubMod 1.5.10.3 | www.virtualdub-fr.org || (build 2550/release)
Библиотека кодирования : VirtualDubMod build 2550/release
Видео
Идентификатор : 0
Формат : MPEG-4 Visual
Профиль формата : Advanced Simple@L5
Параметр BVOP формата : 1
Параметр QPel формата : Нет
Параметр GMC формата : Без точки перехода
Параметр матрицы формата : Выборочная
Идентификатор кодека : XVID
Идентификатор кодека/Подсказка : XviD
Продолжительность : 1 ч. 47 м.
Битрейт : 1751 Кбит/сек
Ширина : 688 пикселей
Высота : 512 пикселей
Соотношение сторон : 4:3
Частота кадров : 25,000 кадров/сек
Цветовое пространство : YUV
Субдискретизация насыщенности : 4:2:0
Битовая глубина : 8 бит
Тип развёртки : Прогрессивная
Метод сжатия : С потерями
Бит/(Пиксели*Кадры) : 0.199
Размер потока : 1,31 Гбайт (90%)
Библиотека кодирования : XviD 1.2.1 (UTC 2008-12-04)
Аудио
Идентификатор : 1
Формат : AC-3
Формат/Информация : Audio Coding 3
Расширение режима : CM (complete main)
Параметр Endianness формата : Big
Идентификатор кодека : 2000
Продолжительность : 1 ч. 47 м.
Вид битрейта : Постоянный
Битрейт : 192 Кбит/сек
Каналы : 2 канала
Расположение каналов : Front: L R
Частота : 48,0 КГц
Частота кадров : 31,250 кадров/сек (1536 spf)
Метод сжатия : С потерями
Размер потока : 147 Мбайт (10%)
Выравнивание : Разделение по промежуткам
Продолжительность промежутка : 40 мс. (1,00 видеокадр)
Время предзагрузки промежутка : 500 мс





   Похожие торренты   Торрент   Размер 
В этой теме нет новых непрочитанных сообщений. Римский-Корсаков (1953) DVDRip от New-Team

6 | 1

745.62 МБ

В этой теме нет новых непрочитанных сообщений. Римский-Корсаков (1953) DVDRip-AVC от New-Team

6 | 3

1.46 ГБ

В этой теме нет новых непрочитанных сообщений. Великие композиторы. Жизнь и творчество - Римский-Корсаков / Мусоргский (2006/2008) FLAC

4 | 2

909.15 МБ

В этой теме нет новых непрочитанных сообщений. Римский-Корсаков / Rimsky-Korsakov - Шехеразада / Шехерезада / Scheherazade [Светланов - ГСО, Friedheim] (1971) MP3

73 | 8

80.77 МБ

В этой теме нет новых непрочитанных сообщений. Римский-Корсаков / Rimsky-Korsakov - The Complete Symphonies, Russian Easter Festival Overture, Capriccio Espagnol [Jarvi - GSO] (2002) MP3

79 | 11

234.18 МБ

В этой теме нет новых непрочитанных сообщений. Римский-Корсаков / Rimsky-Korsakov - The Complete Symphonies, Capriccio Espagnol, Russian Easter Festival Overture [Jarvi - Gothenburg SO] (2002) FLAC

117 | 28

481.35 МБ

В этой теме нет новых непрочитанных сообщений. Чук и Гек (1953) DVDRip от New-Team

669 | 23

745.12 МБ




Вы не можете начинать темы
Вы не можете отвечать на сообщения
Вы не можете редактировать свои сообщения
Вы не можете удалять свои сообщения
Вы не можете добавлять вложения

Перейти:  
Для Мосгорсуда, Роскомнадзора и рекламодателей: mosgorsud-torrent[собачка]yandex.ru
 Вход
ppkBB3cker v.2 © 2008-2014 @ PPK
[ Time : 0.039s | 16 Queries | GZIP : Off ]

cron