img image001 image001 image001 image001 image001 image001 image001 image001 image001 image001 image001 image001 image001 image001 image001

Planets Sun Sun Sun
Статистика раздачи
Автор: PriZraK | Размер: 1.34 ГБ | Добавлен: 03 апр 2016
Раздают: 21    Качают: 4
Скачать торрент
Скачать торрент
Описание торрента

СообщениеДобавлено: 03 апр 2016 


Информация о фильме
Название: В этом южном городе / В одном южном городе / Бир чануб шахаринда / Bir cənub şəhərində
Год выхода: 1969
Жанр: Драма
Режиссер: Эльдар Кулиев
В ролях: Гасан Мамедов, Эльданиз Зейналов, Гаджимурад Ягизаров, Меджид Дадашев, Нателла Адыгёзалова, Садых Гусейнов, Сусанна Меджидова, Татьяна Харитонова, Асад Мамедов, Юсиф Велиев, Садык Гасанзаде, Бильгеиз Алескерова, Фазиль Салаев, Мемедкамаль Казымов
О фильме:
О столкновении старого и нового, об их странном, причудливом, комичном, а порой и тревожном сочетании в жизни и быте послевоенного Баку рассказывает этот фильм.
Сценарист: Рустам Ибрагимбеков
Оператор: Расим Оджагов
Композитор: Фарадж Караев
Художник: Кямиль Наджафзаде
Премьера: 2 марта 1970 (Москва)


Запись потока *.ts с наземного цифрового телеканала "Беларусь 3", ремукс в *.mkv программой VideoReDo.
Страна: СССР
Студия: Азербайджанфильм
Продолжительность: 01:16:30
Перевод: Профессиональный (дублированный)
Файл
Кодек: AVC (H264)
Качество: DVB
Видео: MPEG4 Video (H264) 720x576 (4:3) 25fps, 2 205 Kbps
Звук: MPEG Audio 48000Hz stereo 256kbps
Семпл
Код:
General
Unique ID                      : 141945602095034555932874146673616478850 (0x6AC9BA8292C3032E1FAC6C89B16FE282)
Complete name                  : D:Новая  земля 2Художественные фильмыВ этом южном городе (1969)В этом южном городе (1969).mkv
Format                         : Matroska
Format version                 : Version 2
File size                      : 1.34 GiB
Duration                       : 1h 16mn
Overall bit rate               : 2 511 Kbps
Writing application            : Lavf52.64.2
Writing library                : Lavf52.64.2
Video
ID                             : 1
Format                         : AVC
Format/Info                    : Advanced Video Codec
Format profile                 : Main@L3.0
Format settings, CABAC         : Yes
Format settings, ReFrames      : 4 frames
Codec ID                       : V_MPEG4/ISO/AVC
Duration                       : 1h 16mn
Bit rate                       : 2 205 Kbps
Width                          : 720 pixels
Height                         : 576 pixels
Display aspect ratio           : 4:3
Original display aspect ratio  : 4:3
Frame rate mode                : Constant
Frame rate                     : 25.000 fps
Standard                       : PAL
Color space                    : YUV
Chroma subsampling             : 4:2:0
Bit depth                      : 8 bits
Scan type                      : MBAFF
Scan order                     : Top Field First
Bits/(Pixel*Frame)             : 0.213
Stream size                    : 1.18 GiB (88%)
Default                        : Yes
Forced                         : No
Color primaries                : BT.601 PAL
Transfer characteristics       : BT.470 System B, BT.470 System G
Matrix coefficients            : BT.601
Color range                    : Limited
Audio
ID                             : 2
Format                         : MPEG Audio
Format version                 : Version 1
Format profile                 : Layer 2
Codec ID                       : A_MPEG/L2
Codec ID/Hint                  : MP2
Duration                       : 1h 16mn
Bit rate mode                  : Constant
Bit rate                       : 256 Kbps
Channel(s)                     : 2 channels
Sampling rate                  : 48.0 KHz
Compression mode               : Lossy
Stream size                    : 140 MiB (10%)
Language                       : English
Default                        : Yes
Forced                         : No





   Похожие торренты   Торрент   Размер 
В этой теме нет новых непрочитанных сообщений. В этом южном городе (1969) TVRip от ClubTorrent

6 | 3

1.23 ГБ

В этой теме нет новых непрочитанных сообщений. Сборник - Ресторанный хит в южном городе (2013) MP3

15 | 3

638.76 МБ

В этой теме нет новых непрочитанных сообщений. Uma2rman - В этом городе все сумасшедшие (2011) MP3

28 | 4

161.66 МБ

В этой теме нет новых непрочитанных сообщений. Uma2rmaH - В этом городе все сумасшедшие (2011) MP3

115 | 12

161.66 МБ

В этой теме нет новых непрочитанных сообщений. Однажды ночью в одном городе / Jedné noci v jednom městě (2007) DVDRip

53 | 7

696.51 МБ

В этой теме нет новых непрочитанных сообщений. Б. Киршина - Что посмотреть на Южном Урале (2010) JPG

0 | 7

46.94 МБ

В этой теме нет новых непрочитанных сообщений. Ад в Лягушачьем городе / Разборки в городе Жаб / Hell Comes to Frogtown (1988) DVDRip

3 | 1

1.43 ГБ




Вы не можете начинать темы
Вы не можете отвечать на сообщения
Вы не можете редактировать свои сообщения
Вы не можете удалять свои сообщения
Вы не можете добавлять вложения

Перейти:  
Для Мосгорсуда, Роскомнадзора и рекламодателей: mosgorsud-torrent[собачка]yandex.ru
 Вход
ppkBB3cker v.2 © 2008-2014 @ PPK
[ Time : 0.029s | 14 Queries | GZIP : Off ]

Торрент трекер RUTOR.IN, Не можете зайти на rutor.org? Какой новый адрес рутор? Какое зеркало рутор? Не работает rutor.org и зеркала? Тогда наш торрент специально для вас. Rutor.in неофициальное зеркало rutor. В случае если у Вас заблокирован rutor или вдруг Вы не можете на него зайти, то Вы без труда сможете скачать бесплатно и без рекламы последние новинки кино, игр, сериалов и прочего у нас, на Rutor.in. Не нужно использовать прокси, чтобы зайти на рутор, достаточно воспользоваться нашим ресурсом. Все новые фильмы, игры, сериалы, книги и музыка за 2013 и 2014 годы через торрент бесплатно. Скачивайте фильмы в хорошем качестве, игры для пк, xbox, playstation без регистрации. У нас вы найдете новые Зарубежные сериалы и Русские сериалы 2013, 2014, 2015 годов. Оставайтесь с нами, качайте любимые фильмы, игры, сериалы, книги и музыку.