img image001 image001 image001 image001 image001 image001 image001 image001 image001 image001 image001 image001 image001 image001 image001

Planets Sun Sun Sun
Статистика раздачи
Автор: PriZraK | Размер: 5.89 ГБ | Добавлен: 03 апр 2016
Раздают: 40    Качают: 3
Скачать торрент
Скачать торрент
Описание торрента

СообщениеДобавлено: 03 апр 2016 


Информация о фильме
Название: Операция «Трест»
Год выхода: 1967
Жанр: Детектив, экранизация, история, приключения
Режиссер: Сергей Колосов
В ролях: Игорь Горбачёв, Донатас Банионис, Армен Джигарханян, Артём Иноземцев, Алексей Сафонов, Евгений Гуров, Бруно Оя, Людмила Касаткина, Всеволод Якут, Виктор Кольцов, Анатолий Адоскин, Михаил Погоржельский, Григорий Гай, Ольга Гобзева, Борис Химичев, Фёдор Одиноков, Геннадий Некрасов
О фильме:
После окончания Гражданской войны за рубежом осталось более двух миллионов русских эмигрантов. Советская контрразведка, понимая, что тысячи опытных, обученных белых офицеров представляют потенциальную опасность для новой власти, проводит ряд рискованных и хитроумных акций по выявлению возможностей и намерений эмигрантских военных кругов. Операция под кодовым названием "Трест" - одна из крупнейших акций подобного рода. Экранизация по произведению: Лев Никулин.
Страна: СССР, Мосфильм
Продолжительность: 4 x ~ 01:30:29
Перевод: не требуется
Файл
Кодек: x264
Качество: DVDRip-AVC
Видео: MPEG-4 AVC, ~ 2300 Кбит/с, [email protected]
Звук: AC3, 1 ch, 224 Кбит/с

raw [info]: 718x572p 16:15 @ 25/1 fps (cfr)
x264 [info]: using SAR=16/15
x264 [info]: using cpu capabilities: MMX2 SSE2Fast SSSE3 SSE4.2 AVX
x264 [info]: profile High, level 4.1
x264 [info]: frame I:559 Avg QP:14.77 size: 60893
x264 [info]: frame P:30252 Avg QP:17.73 size: 23297
x264 [info]: frame B:86777 Avg QP:18.58 size: 6732
=================================================================================================================
Общее
Уникальный идентификатор : 191437688341875027219996285128748362890 (0x90058EC1E68FCA3787A1DF7ECA78EC8A)
Полное имя : H:МОИ РИПЫОперация Трест_1969-DVDRip-AVCОперация трест-1.mkv
Формат : Matroska
Версия формата : Version 2
Размер файла : 1,36 Гбайт
Продолжительность : 1 ч. 18 м.
Общий поток : 2476 Кбит/сек
Дата кодирования : UTC 2014-07-28 01:25:48
Программа кодирования : mkvmerge v5.2.0 ('I can't explain') built on Dec 18 2011 18:12:03
Библиотека кодирования : libebml v1.2.3 + libmatroska v1.3.0
Видео
Идентификатор : 1
Формат : AVC
Формат/Информация : Advanced Video Codec
Профиль формата : High@L4.1
Параметр CABAC формата : Да
Параметр ReFrames формата : 15 кадров
Идентификатор кодека : V_MPEG4/ISO/AVC
Продолжительность : 1 ч. 18 м.
Битрейт : 2250 Кбит/сек
Ширина : 718 пикселей
Высота : 572 пикселя
Соотношение сторон : 4:3
Режим частоты кадров : Постоянный
Частота кадров : 25,000 кадров/сек
Цветовое пространство : YUV
Субдискретизация насыщенности : 4:2:0
Битовая глубина : 8 бит
Тип развёртки : Прогрессивная
Бит/(Пиксели*Кадры) : 0.219
Размер потока : 1,21 Гбайт (89%)
Библиотека кодирования : x264 core 142 r2431 ac76440
Настройки программы : cabac=1 / ref=15 / deblock=1:-2:-2 / analyse=0x3:0x133 / me=umh / subme=10 / psy=1 / psy_rd=1.05:0.20 / mixed_ref=1 / me_range=24 / chroma_me=1 / trellis=2 / 8x8dct=1 / cqm=0 / deadzone=21,11 / fast_pskip=0 / chroma_qp_offset=-3 / threads=12 / lookahead_threads=2 / sliced_threads=0 / nr=0 / decimate=0 / interlaced=0 / bluray_compat=0 / constrained_intra=0 / bframes=8 / b_pyramid=2 / b_adapt=2 / b_bias=0 / direct=3 / weightb=1 / open_gop=0 / weightp=2 / keyint=250 / keyint_min=25 / scenecut=40 / intra_refresh=0 / rc=2pass / mbtree=0 / bitrate=2250 / ratetol=1.0 / qcomp=0.65 / qpmin=0 / qpmax=39 / qpstep=4 / cplxblur=20.0 / qblur=0.5 / ip_ratio=1.35 / pb_ratio=1.25 / aq=1:1.00
Язык : English
Default : Да
Forced : Нет
Основные цвета : BT.601 PAL
Характеристики трансфера : BT.470 System B, BT.470 System G
Коэффициенты матрицы : BT.601
Аудио
Идентификатор : 2
Формат : AC-3
Формат/Информация : Audio Coding 3
Расширение режима : CM (complete main)
Параметр Endianness формата : Big
Идентификатор кодека : A_AC3
Продолжительность : 1 ч. 18 м.
Вид битрейта : Постоянный
Битрейт : 224 Кбит/сек
Каналы : 1 канал
Расположение каналов : Front: C
Частота : 48,0 КГц
Битовая глубина : 16 бит
Метод сжатия : С потерями
Размер потока : 126 Мбайт (9%)
Язык : Russian
Default : Да
Forced : Нет

Релиз от:
Автор релиза:



   Похожие торренты   Торрент   Размер 
В этой теме нет новых непрочитанных сообщений. Операция Восход / Операция Рассвет / Operation Daybreak (1975) DVDRip от ExKinoRay

4 | 63

2 ГБ

В этой теме нет новых непрочитанных сообщений. Трест, который лопнул (1982) DVDRip

26 | 4

2.05 ГБ

В этой теме нет новых непрочитанных сообщений. Трест, который лопнул (1982) DVDRip от FREEISLAND

36 | 7

4.1 ГБ

В этой теме нет новых непрочитанных сообщений. Нежность (1967) DVDRip-AVC от ExKinoRay

32 | 4

1.59 ГБ

В этой теме нет новых непрочитанных сообщений. Операция Негодяй / Операция Возмездие / Operation Rogue (2014) DVDRip | Лицензия

5306 | 236

1.37 ГБ

В этой теме нет новых непрочитанных сообщений. Вестерплатте / Westerplatte (1967) DVDRip от ExKinoRay

4 | 53

1.37 ГБ

В этой теме нет новых непрочитанных сообщений. Майор Вихрь (1967) DVDRip-AVC от ExKinoRay

267 | 2

3.59 ГБ




Вы не можете начинать темы
Вы не можете отвечать на сообщения
Вы не можете редактировать свои сообщения
Вы не можете удалять свои сообщения
Вы не можете добавлять вложения

Перейти:  
Для Мосгорсуда, Роскомнадзора и рекламодателей: mosgorsud-torrent[собачка]yandex.ru
 Вход
ppkBB3cker v.2 © 2008-2014 @ PPK
[ Time : 0.057s | 16 Queries | GZIP : Off ]

Торрент трекер RUTOR.IN, Не можете зайти на rutor.org? Какой новый адрес рутор? Какое зеркало рутор? Не работает rutor.org и зеркала? Тогда наш торрент специально для вас. Rutor.in неофициальное зеркало rutor. В случае если у Вас заблокирован rutor или вдруг Вы не можете на него зайти, то Вы без труда сможете скачать бесплатно и без рекламы последние новинки кино, игр, сериалов и прочего у нас, на Rutor.in. Не нужно использовать прокси, чтобы зайти на рутор, достаточно воспользоваться нашим ресурсом. Все новые фильмы, игры, сериалы, книги и музыка за 2013 и 2014 годы через торрент бесплатно. Скачивайте фильмы в хорошем качестве, игры для пк, xbox, playstation без регистрации. У нас вы найдете новые Зарубежные сериалы и Русские сериалы 2013, 2014, 2015 годов. Оставайтесь с нами, качайте любимые фильмы, игры, сериалы, книги и музыку.
cron