img image001 image001 image001 image001 image001 image001 image001 image001 image001 image001 image001 image001 image001 image001 image001

Planets Sun Sun Sun
Статистика раздачи
Автор: PriZraK | Размер: 7.03 ГБ | Добавлен: 03 апр 2016
Раздают: 16    Качают: 5
Скачать торрент
Скачать торрент
Описание торрента

СообщениеДобавлено: 03 апр 2016 


Информация о фильме
Название: Подросток
Год выхода: 1983
Жанр: Драма, история, экранизация
Режиссер: Евгений Ташков
В ролях: Наталья Гундарева, Олег Борисов, Андрей Ташков, Татьяна Ташкова, Наталья Стриженова, Леонид Оболенский, Марина Федина, Анатолий Омельченко, Элла Некрасова, Софья Павлова, Галина Дёмина, Игорь Безяев, Александр Ермаков, Борис Шувалов, Зоя Толбузина, Вилныс Бекерис, Виктор Гордеев, Борис Галкин, Евгений Герасимов, Лариса Малеванная, Борис Новиков, Лариса Удовиченко, Евгения Симонова, Александр Хотченков, Александр Вдовин, Николай Засухин, Вера Ивлева, Владимир Ширяев, Владимир Ферапонтов, Станислав Коренев, Юрий Васильев
О фильме:
«Подросток» — роман Фёдора Михайловича Достоевского, начат в феврале 1874 и закончен в ноябре 1875. Впервые опубликован в 1875 году в журнале «Отечественные записки». В романе писатель затрагивает проблему «отцов и детей», рассматривая её через взаимоотношения главного героя подростка — Аркадия Макаровича Долгорукого со своим отцом Андреем Петровичем Версиловым. С помощью Подростка автор показывает, как сквозь алчность, жажду наживы и разврат формируется личность главного героя. Писатель противопоставляет дворянина Версилова, отца Подростка, и дворового человека Макара Долгорукого — формального отца. Второй для автора становится символом понимания народной правды и идеи нравственного «благообразия», одной из основных идей романа.
Страна: СССР, Мосфильм, Гостелерадио
Продолжительность: 6 x ~ 01:16:12
Перевод: не требуется
Файл
Кодек: x264
Качество: DVDRip-AVC
Видео: MPEG-4 AVC, ~ 2050 Кбит/с, [email protected], [email protected]
Звук: AC3, 2 ch, 192 Кбит/с

Общее
Уникальный идентификатор : 245298462052182589790622626597627149328 (0xB88AC3ED2E500238A7F4F04255FEBC10)
Полное имя : I:МОИ РИПЫПодросток_1983-DVDRip-AVCПодросток-1.mkv
Формат : Matroska
Версия формата : Version 2
Размер файла : 1,19 Гбайт
Продолжительность : 1 ч. 16 м.
Общий поток : 2244 Кбит/сек
Дата кодирования : UTC 2014-12-07 22:49:43
Программа кодирования : mkvmerge v5.2.0 ('I can't explain') built on Dec 18 2011 18:12:03
Библиотека кодирования : libebml v1.2.3 + libmatroska v1.3.0
Видео
Идентификатор : 1
Формат : AVC
Формат/Информация : Advanced Video Codec
Профиль формата : High@L4.1
Параметр CABAC формата : Да
Параметр ReFrames формата : 15 кадров
Идентификатор кодека : V_MPEG4/ISO/AVC
Продолжительность : 1 ч. 16 м.
Битрейт : 2050 Кбит/сек
Ширина : 716 пикселей
Высота : 574 пикселя
Соотношение сторон : 4:3
Режим частоты кадров : Постоянный
Частота кадров : 25,000 кадров/сек
Цветовое пространство : YUV
Субдискретизация насыщенности : 4:2:0
Битовая глубина : 8 бит
Тип развёртки : Прогрессивная
Бит/(Пиксели*Кадры) : 0.200
Размер потока : 1,07 Гбайт (89%)
Библиотека кодирования : x264 core 142 r2431 ac76440
Настройки программы : cabac=1 / ref=15 / deblock=1:-2:-2 / analyse=0x3:0x133 / me=umh / subme=10 / psy=1 / psy_rd=1.05:0.13 / mixed_ref=1 / me_range=24 / chroma_me=1 / trellis=2 / 8x8dct=1 / cqm=0 / deadzone=21,11 / fast_pskip=0 / chroma_qp_offset=-3 / threads=12 / lookahead_threads=2 / sliced_threads=0 / nr=0 / decimate=0 / interlaced=0 / bluray_compat=0 / constrained_intra=0 / bframes=8 / b_pyramid=2 / b_adapt=2 / b_bias=0 / direct=1 / weightb=1 / open_gop=0 / weightp=2 / keyint=250 / keyint_min=25 / scenecut=40 / intra_refresh=0 / rc=2pass / mbtree=0 / bitrate=2050 / ratetol=1.0 / qcomp=0.60 / qpmin=0 / qpmax=39 / qpstep=4 / cplxblur=20.0 / qblur=0.5 / ip_ratio=1.40 / pb_ratio=1.30 / aq=1:0.90
Язык : English
Default : Да
Forced : Нет
Основные цвета : BT.601 PAL
Характеристики трансфера : BT.470 System B, BT.470 System G
Коэффициенты матрицы : BT.601
colour_range : Limited
Аудио
Идентификатор : 2
Формат : AC-3
Формат/Информация : Audio Coding 3
Расширение режима : CM (complete main)
Параметр Endianness формата : Big
Идентификатор кодека : A_AC3
Продолжительность : 1 ч. 16 м.
Вид битрейта : Постоянный
Битрейт : 192 Кбит/сек
Каналы : 2 канала
Расположение каналов : Front: L R
Частота : 48,0 КГц
Битовая глубина : 16 бит
Метод сжатия : С потерями
Размер потока : 105 Мбайт (9%)
Язык : Russian
Default : Да
Forced : Нет

Релиз от:
Автор релиза:



   Похожие торренты   Торрент   Размер 
В этой теме нет новых непрочитанных сообщений. Подросток (1983) DVDRip

20 | 5

4.11 ГБ

В этой теме нет новых непрочитанных сообщений. Небывальщина (1983) DVDRip-AVC от ExKinoRay

179 | 17

1.73 ГБ

В этой теме нет новых непрочитанных сообщений. Без свидетелей (1983) DVDRip-AVC от ExKinoRay

91 | 17

1.76 ГБ

В этой теме нет новых непрочитанных сообщений. Петля [1-3 из 3] (1983) DVDRip от ExKinoRay

31 | 8

2.05 ГБ

В этой теме нет новых непрочитанных сообщений. Демидовы [01-02 из 02] (1983) DVDRip-AVC от ExKinoRay

267 | 20

2.67 ГБ

В этой теме нет новых непрочитанных сообщений. Торпедоносцы (1983) DVDRip-AVC от ExKinoRay

50 | 2

1.8 ГБ

В этой теме нет новых непрочитанных сообщений. Демидовы [01-02 из 02] (1983) DVDRip от ExKinoRay

59 | 19

1.46 ГБ




Вы не можете начинать темы
Вы не можете отвечать на сообщения
Вы не можете редактировать свои сообщения
Вы не можете удалять свои сообщения
Вы не можете добавлять вложения

Перейти:  
Для Мосгорсуда, Роскомнадзора и рекламодателей: mosgorsud-torrent[собачка]yandex.ru
 Вход
ppkBB3cker v.2 © 2008-2014 @ PPK
[ Time : 0.019s | 15 Queries | GZIP : On ]

Торрент трекер RUTOR.IN, Не можете зайти на rutor.org? Какой новый адрес рутор? Какое зеркало рутор? Не работает rutor.org и зеркала? Тогда наш торрент специально для вас. Rutor.in неофициальное зеркало rutor. В случае если у Вас заблокирован rutor или вдруг Вы не можете на него зайти, то Вы без труда сможете скачать бесплатно и без рекламы последние новинки кино, игр, сериалов и прочего у нас, на Rutor.in. Не нужно использовать прокси, чтобы зайти на рутор, достаточно воспользоваться нашим ресурсом. Все новые фильмы, игры, сериалы, книги и музыка за 2013 и 2014 годы через торрент бесплатно. Скачивайте фильмы в хорошем качестве, игры для пк, xbox, playstation без регистрации. У нас вы найдете новые Зарубежные сериалы и Русские сериалы 2013, 2014, 2015 годов. Оставайтесь с нами, качайте любимые фильмы, игры, сериалы, книги и музыку.