img image001 image001 image001 image001 image001 image001 image001 image001 image001 image001 image001 image001 image001 image001 image001

Planets Sun Sun Sun
Статистика раздачи
Автор: PriZraK | Размер: 1.68 ГБ | Добавлен: 02 апр 2016
Раздают: 11    Качают: 1
Скачать торрент
Скачать торрент
Описание торрента

СообщениеДобавлено: 02 апр 2016 


Информация о фильме
Название: Жди меня
Год выхода: 1943
Жанр: Драма, военный
Режиссер: Борис Иванов, Александр Столпер, Виктор Иванов
В ролях: Борис Блинов, Валентина Серова, Лев Свердлин, Михаил Названов, Нина Зорская, Елена Тяпкина, Андрей Апсолон, Людмила Глазова, Павел Герага, Антон Мартынов, Елена Сипавина
О фильме:
Отечественная война. Оказавшись в тылу врага, Ермолов приказывает военному корреспонденту Вайнштейну доставить в частьпленку с заснятыми аэродромами врага и записку для жены. Отойдя от лесной землянки, где остался Ермолов, Вайнштейн слышит короткую перестрелку. Позже он уверенно скажет Лизе о смерти Ермолова, но она не поверит. И каждый день Лиза будет ждать мужа, уверенная в том, что завтра они увидятся.
Страна: СССР, Мосфильм
Продолжительность: 01:27:09
Перевод: не требуется
Файл
Кодек: x264
Качество: DVDRip-AVC
Видео: MPEG-4 AVC, ~ 2500 Кбит/с, [email protected]
Звук: AC3, 2 ch, 256 Кбит/с

raw [info]: 658x552p 16:15 @ 25/1 fps (cfr)
x264 [info]: using SAR=16/15
x264 [info]: using cpu capabilities: MMX2 SSE2Fast SSSE3 SSE4.2 AVX
x264 [info]: profile High, level 4.1
x264 [info]: frame I:637 Avg QP:15.92 size: 63870
x264 [info]: frame P:35426 Avg QP:18.90 size: 28048
x264 [info]: frame B:94653 Avg QP:20.29 size: 6331
=====================================================================================================
Общее
Уникальный идентификатор : 208293003778269452689393075022774792345 (0x9CB3C5F8300B08A3B5674E852235F099)
Полное имя : D:Жди меня_1943-DVDRip-AVC.mkv
Формат : Matroska
Версия формата : Version 2
Размер файла : 1,68 Гбайт
Продолжительность : 1 ч. 27 м.
Общий поток : 2757 Кбит/сек
Дата кодирования : UTC 2015-01-11 18:23:56
Программа кодирования : mkvmerge v5.2.1 ('A Far Off Place') built on Jan 31 2012 17:07:03
Библиотека кодирования : libebml v1.2.3 + libmatroska v1.3.0
Видео
Идентификатор : 1
Формат : AVC
Формат/Информация : Advanced Video Codec
Профиль формата : High@L4.1
Параметр CABAC формата : Да
Параметр ReFrames формата : 14 кадров
Идентификатор кодека : V_MPEG4/ISO/AVC
Продолжительность : 1 ч. 27 м.
Битрейт : 2500 Кбит/сек
Ширина : 658 пикселей
Высота : 552 пикселя
Соотношение сторон : 1,272
Соотношение сторон в оригинале : 1,271
Режим частоты кадров : Постоянный
Частота кадров : 25,000 кадров/сек
Цветовое пространство : YUV
Субдискретизация насыщенности : 4:2:0
Битовая глубина : 8 бит
Тип развёртки : Прогрессивная
Бит/(Пиксели*Кадры) : 0.275
Размер потока : 1,49 Гбайт (89%)
Библиотека кодирования : x264 core 130 r2273 b3065e6
Настройки программы : cabac=1 / ref=14 / deblock=1:-2:-2 / analyse=0x3:0x133 / me=umh / subme=10 / psy=1 / psy_rd=1.05:0.15 / mixed_ref=1 / me_range=24 / chroma_me=1 / trellis=2 / 8x8dct=1 / cqm=0 / deadzone=21,11 / fast_pskip=0 / chroma_qp_offset=-3 / threads=12 / lookahead_threads=1 / sliced_threads=0 / nr=0 / decimate=0 / interlaced=0 / bluray_compat=0 / constrained_intra=0 / bframes=5 / b_pyramid=2 / b_adapt=2 / b_bias=0 / direct=3 / weightb=1 / open_gop=0 / weightp=2 / keyint=250 / keyint_min=25 / scenecut=40 / intra_refresh=0 / rc=2pass / mbtree=0 / bitrate=2500 / ratetol=1.0 / qcomp=0.60 / qpmin=0 / qpmax=39 / qpstep=4 / cplxblur=20.0 / qblur=0.5 / ip_ratio=1.40 / pb_ratio=1.30 / aq=1:1.00
Язык : English
Default : Да
Forced : Нет
Основные цвета : BT.601 PAL
Характеристики трансфера : BT.470 System B, BT.470 System G
Коэффициенты матрицы : BT.601
colour_range : Limited
Аудио
Идентификатор : 2
Формат : AC-3
Формат/Информация : Audio Coding 3
Расширение режима : CM (complete main)
Параметр Endianness формата : Big
Идентификатор кодека : A_AC3
Продолжительность : 1 ч. 27 м.
Вид битрейта : Постоянный
Битрейт : 256 Кбит/сек
Каналы : 2 канала
Расположение каналов : Front: L R
Частота : 48,0 КГц
Битовая глубина : 16 бит
Метод сжатия : С потерями
Размер потока : 160 Мбайт (9%)
Язык : Russian
Default : Да
Forced : Нет

Релиз от:
Автор релиза:



   Похожие торренты   Торрент   Размер 
В этой теме нет новых непрочитанных сообщений. Серебряный флот / The Silver Fleet (1943) DVDRip от ExKinoRay

3 | 2

1.37 ГБ

В этой теме нет новых непрочитанных сообщений. Искусство войны: Африка 1943 / Theatre of War 2: Africa 1943 (2009) PC | Steam-Rip

196 | 24

1.58 ГБ

В этой теме нет новых непрочитанных сообщений. Искусство войны: Африка 1943 / Theatre of War 2: Africa 1943 (2009) PC

73 | 9

1.81 ГБ

В этой теме нет новых непрочитанных сообщений. Roy Eldridge - I Can`t Get Started [1943-1944] (2002) MP3 от BestSound ExKinoRay

0 | 0

108.79 МБ

В этой теме нет новых непрочитанных сообщений. Два бойца (1943) DVDRip-AVC

7 | 5

1.45 ГБ

В этой теме нет новых непрочитанных сообщений. Два бойца (1943) DVDRip

25 | 10

1.37 ГБ

В этой теме нет новых непрочитанных сообщений. Сталинград (1943) DVDRip

31 | 10

1.18 ГБ




Вы не можете начинать темы
Вы не можете отвечать на сообщения
Вы не можете редактировать свои сообщения
Вы не можете удалять свои сообщения
Вы не можете добавлять вложения

Перейти:  
Для Мосгорсуда, Роскомнадзора и рекламодателей: mosgorsud-torrent[собачка]yandex.ru
 Вход
ppkBB3cker v.2 © 2008-2014 @ PPK
[ Time : 2.499s | 16 Queries | GZIP : Off ]

Торрент трекер RUTOR.IN, Не можете зайти на rutor.org? Какой новый адрес рутор? Какое зеркало рутор? Не работает rutor.org и зеркала? Тогда наш торрент специально для вас. Rutor.in неофициальное зеркало rutor. В случае если у Вас заблокирован rutor или вдруг Вы не можете на него зайти, то Вы без труда сможете скачать бесплатно и без рекламы последние новинки кино, игр, сериалов и прочего у нас, на Rutor.in. Не нужно использовать прокси, чтобы зайти на рутор, достаточно воспользоваться нашим ресурсом. Все новые фильмы, игры, сериалы, книги и музыка за 2013 и 2014 годы через торрент бесплатно. Скачивайте фильмы в хорошем качестве, игры для пк, xbox, playstation без регистрации. У нас вы найдете новые Зарубежные сериалы и Русские сериалы 2013, 2014, 2015 годов. Оставайтесь с нами, качайте любимые фильмы, игры, сериалы, книги и музыку.
cron