img image001 image001 image001 image001 image001 image001 image001 image001 image001 image001 image001 image001 image001 image001 image001

Planets Sun Sun Sun
Статистика раздачи
Автор: PriZraK | Размер: 2.32 ГБ | Добавлен: 03 апр 2016
Раздают: 48    Качают: 7
Скачать торрент
Скачать торрент
Описание торрента

СообщениеДобавлено: 03 апр 2016 


Информация о фильме
Название: Донская повесть
Год выхода: 1964
Жанр: Драма, экранизация
Режиссер: Владимир Фетин
В ролях: Евгений Леонов, Людмила Чурсина, Александр Блинов, Николай Мельников, Борис Новиков, Валентина Владимирова, Алексей Грибов, Георгий Штиль, Алексей Смирнов (I), Аркадий Трусов, Роман Филиппов, Алексей Кожевников, Николай Кузьмин, Павел Первушин, Михаил Мудров, Аркадий Пышняк, Виктор Терехов, Олег Хроменков, Александр Афанасьев, Гликерия Богданова-Чеснокова, Лилия Гурова
О фильме:
В центре фильма — судьба пулеметчика Якова Шибалка. Возлюбленная красного казака, мать его ребенка оказывается шпионкой белых. Об этом она признается любимому мужу при родах. И революционный долг оказывается превыше всего…
Страна: СССР, Ленфильм
Продолжительность: 01:29:49
Перевод: не требуется
Файл
Кодек: x264
Качество: DVDRip-AVC
Видео: MPEG-4 AVC, 3500 Кбит/с, [email protected]
Звук: AC3, 2 ch, 192 Кбит/с

raw [info]: 702x556p 16:15 @ 25/1 fps (cfr)
x264 [info]: using SAR=16/15
x264 [info]: using cpu capabilities: MMX2 SSE2Fast SSSE3 SSE4.2 AVX
x264 [info]: profile High, level 4.1
x264 [info]: frame I:701 Avg QP:16.70 size: 68296
x264 [info]: frame P:28418 Avg QP:19.78 size: 31847
x264 [info]: frame B:105612 Avg QP:22.20 size: 13302
=========================================================================================================
Общее
Уникальный идентификатор : 245902071849123230995148674479663647080 (0xB8FF042FE9F8607DBF922A5DEBF08968)
Полное имя : D:Донская повесть_1964-DVDRip-AVC.mkv
Формат : Matroska
Версия формата : Version 2
Размер файла : 2,32 Гбайт
Продолжительность : 1 ч. 29 м.
Общий поток : 3694 Кбит/сек
Дата кодирования : UTC 2015-01-11 10:42:23
Программа кодирования : mkvmerge v5.2.1 ('A Far Off Place') built on Jan 31 2012 17:07:03
Библиотека кодирования : libebml v1.2.3 + libmatroska v1.3.0
Видео
Идентификатор : 1
Формат : AVC
Формат/Информация : Advanced Video Codec
Профиль формата : High@L4.1
Параметр CABAC формата : Да
Параметр ReFrames формата : 14 кадров
Идентификатор кодека : V_MPEG4/ISO/AVC
Продолжительность : 1 ч. 29 м.
Битрейт : 3500 Кбит/сек
Ширина : 702 пикселя
Высота : 556 пикселей
Соотношение сторон : 4:3
Соотношение сторон в оригинале : 4:3
Режим частоты кадров : Постоянный
Частота кадров : 25,000 кадров/сек
Цветовое пространство : YUV
Субдискретизация насыщенности : 4:2:0
Битовая глубина : 8 бит
Тип развёртки : Прогрессивная
Бит/(Пиксели*Кадры) : 0.359
Размер потока : 2,15 Гбайт (93%)
Библиотека кодирования : x264 core 142 r2431 ac76440
Настройки программы : cabac=1 / ref=14 / deblock=1:-2:-2 / analyse=0x3:0x133 / me=umh / subme=10 / psy=1 / psy_rd=1.10:0.15 / mixed_ref=1 / me_range=32 / chroma_me=1 / trellis=2 / 8x8dct=1 / cqm=0 / deadzone=21,11 / fast_pskip=0 / chroma_qp_offset=-3 / threads=12 / lookahead_threads=2 / sliced_threads=0 / nr=0 / decimate=0 / interlaced=0 / bluray_compat=0 / constrained_intra=0 / bframes=9 / b_pyramid=2 / b_adapt=2 / b_bias=0 / direct=1 / weightb=1 / open_gop=0 / weightp=2 / keyint=250 / keyint_min=25 / scenecut=40 / intra_refresh=0 / rc=2pass / mbtree=0 / bitrate=3500 / ratetol=1.0 / qcomp=0.60 / qpmin=0 / qpmax=39 / qpstep=4 / cplxblur=20.0 / qblur=0.5 / ip_ratio=1.40 / pb_ratio=1.30 / aq=1:0.90
Язык : English
Default : Да
Forced : Нет
Основные цвета : BT.601 PAL
Характеристики трансфера : BT.470 System B, BT.470 System G
Коэффициенты матрицы : BT.601
colour_range : Limited
Аудио
Идентификатор : 2
Формат : AC-3
Формат/Информация : Audio Coding 3
Расширение режима : CM (complete main)
Параметр Endianness формата : Big
Идентификатор кодека : A_AC3
Продолжительность : 1 ч. 29 м.
Вид битрейта : Постоянный
Битрейт : 192 Кбит/сек
Каналы : 2 канала
Расположение каналов : Front: L R
Частота : 48,0 КГц
Битовая глубина : 16 бит
Метод сжатия : С потерями
Размер потока : 123 Мбайт (5%)
Язык : Russian
Default : Да
Forced : Нет

Релиз от:
Автор релиза:



   Похожие торренты   Торрент   Размер 
В этой теме нет новых непрочитанных сообщений. Донская повесть (1964) DVDRip

30 | 6

1.37 ГБ

В этой теме нет новых непрочитанных сообщений. Повесть о настоящем человеке (1948) DVDRip-AVC от ExKinoRay

258 | 13

2.36 ГБ

В этой теме нет новых непрочитанных сообщений. В бездну: Повесть о жизни, повесть о смерти / Into the Abyss (2011) IPTVRip от Pshichko66

18 | 3

1.47 ГБ

В этой теме нет новых непрочитанных сообщений. Мне двадцать лет (1964) DVDRip-AVC от ExKinoRay

208 | 70

3.37 ГБ

В этой теме нет новых непрочитанных сообщений. Человек из Рио / L'Homme de Rio (1964) DVDRip от ExKinoRay

29 | 9

1.38 ГБ

В этой теме нет новых непрочитанных сообщений. Пядь земли (1964) DVDRip-AVC от ExKinoRay

374 | 48

1.65 ГБ

В этой теме нет новых непрочитанных сообщений. Месье / Monsieur (1964) DVDRip от ExKinoRay

8 | 2

1.37 ГБ




Вы не можете начинать темы
Вы не можете отвечать на сообщения
Вы не можете редактировать свои сообщения
Вы не можете удалять свои сообщения
Вы не можете добавлять вложения

Перейти:  
Для Мосгорсуда, Роскомнадзора и рекламодателей: mosgorsud-torrent[собачка]yandex.ru
 Вход
ppkBB3cker v.2 © 2008-2014 @ PPK
[ Time : 0.550s | 15 Queries | GZIP : On ]

Торрент трекер RUTOR.IN, Не можете зайти на rutor.org? Какой новый адрес рутор? Какое зеркало рутор? Не работает rutor.org и зеркала? Тогда наш торрент специально для вас. Rutor.in неофициальное зеркало rutor. В случае если у Вас заблокирован rutor или вдруг Вы не можете на него зайти, то Вы без труда сможете скачать бесплатно и без рекламы последние новинки кино, игр, сериалов и прочего у нас, на Rutor.in. Не нужно использовать прокси, чтобы зайти на рутор, достаточно воспользоваться нашим ресурсом. Все новые фильмы, игры, сериалы, книги и музыка за 2013 и 2014 годы через торрент бесплатно. Скачивайте фильмы в хорошем качестве, игры для пк, xbox, playstation без регистрации. У нас вы найдете новые Зарубежные сериалы и Русские сериалы 2013, 2014, 2015 годов. Оставайтесь с нами, качайте любимые фильмы, игры, сериалы, книги и музыку.