img image001 image001 image001 image001 image001 image001 image001 image001 image001 image001 image001 image001 image001 image001 image001

Planets Sun Sun Sun
Статистика раздачи
Автор: Nickolas3434 | Размер: 3.89 ГБ | Добавлен: 03 апр 2016, 19:59
Раздают: 260    Качают: 13
Скачать торрент
Скачать торрент
Описание торрента

СообщениеДобавлено: 03 апр 2016, 19:59 


Информация о фильме
Название: Приключения принца Флоризеля / Клуб самоубийц, или Приключения титулованной особы
Год выхода: 1979
Жанр: Приключения, комедия, криминал, экранизация
Режиссер: Евгений Татарский
В ролях: Олег Даль, Донатас Банионис, Игорь Дмитриев, Любовь Полищук, Виталий Ильин, Игорь Янковский, Елена Цыплакова, Михаил Пуговкин, Владимир Басов, Гелий Сысоев, Борис Новиков, Вячеслав Васильев, Любовь Малиновская, Валентин Голубенко, Владимир Лосев, Илья Резник, Галина Самохина, Николай Кузьмин, Асхаб Абакаров, Елена Соловей, Иван Мокеев, Владимир Шевельков, Валерий Миронов, Валерий Матвеев, Евгений Киндинов, Анатолий Подшивалов
О фильме:
Иронический детектив по мотивам рассказов английского писателя Роберта Льюиса Стивенсона "Клуб самоубийц" и "Алмаз раджи". Утомленный скукой авантюрист и любитель приключений принц Флоризель вместе со своим другом полковником Джеральдином оказывается в клубе самоубийц. Занимаясь расследованием преступлений, он выходит на след самого опасного преступника Европы. Так начинаются невероятно смешные и опасные приключения титулованной особы...
Страна: СССР, Ленфильм
Продолжительность: 3 x ~ 01:03:20
Перевод: не требуется
Файл
Кодек: x264
Качество: DVDRip-AVC
Видео: MPEG-4 AVC, ~ 2150 Кбит/с, 718x574@765x574
Звук: АС3, 6 ch, 448 Кбит/с, АС3, 1 ch, 224 Кбит/с

raw [info]: 718x574p 16:15 @ 25/1 fps (cfr)
x264 [info]: using SAR=16/15
x264 [info]: using cpu capabilities: MMX2 SSE2Fast SSSE3 SSE4.2 AVX
x264 [info]: profile High, level 4.1
x264 [info]: frame I:594 Avg QP:13.93 size: 81508
x264 [info]: frame P:24468 Avg QP:18.52 size: 24662
x264 [info]: frame B:70185 Avg QP:20.37 size: 5980
=============================================================================================================================
Общее
Уникальный идентификатор : 200901342263156429231084414120753618556 (0x972430EB7C3B33CEBEF11BE822E7DE7C)
Полное имя : R:МОИ РИПЫКлуб самоубийц, или Приключения титулованной особы_1979-DVDRip-AVCКлуб самоубийц-1.mkv
Формат : Matroska
Версия формата : Version 2
Размер файла : 1,26 Гбайт
Продолжительность : 1 ч. 3 м.
Общий поток : 2824 Кбит/сек
Дата кодирования : UTC 2016-04-01 19:43:56
Программа кодирования : mkvmerge v5.8.0 ('No Sleep / Pillow') built on Sep 2 2012 15:37:04
Библиотека кодирования : libebml v1.2.3 + libmatroska v1.3.0
Видео
Идентификатор : 1
Формат : AVC
Формат/Информация : Advanced Video Codec
Профиль формата : High@L4.1
Параметр CABAC формата : Да
Параметр ReFrames формата : 14 кадров
Идентификатор кодека : V_MPEG4/ISO/AVC
Продолжительность : 1 ч. 3 м.
Битрейт : 2150 Кбит/сек
Ширина : 718 пикселей
Высота : 574 пикселя
Соотношение сторон : 4:3
Соотношение сторон в оригинале : 4:3
Режим частоты кадров : Постоянный
Частота кадров : 25,000 кадров/сек
Цветовое пространство : YUV
Субдискретизация насыщенности : 4:2:0
Битовая глубина : 8 бит
Тип развёртки : Прогрессивная
Бит/(Пиксели*Кадры) : 0.209
Размер потока : 954 Мбайт (74%)
Библиотека кодирования : x264 core 148 r2638 7599210
Настройки программы : cabac=1 / ref=14 / deblock=1:-2:-2 / analyse=0x3:0x133 / me=umh / subme=10 / psy=1 / psy_rd=1.05:0.10 / mixed_ref=1 / me_range=32 / chroma_me=1 / trellis=2 / 8x8dct=1 / cqm=0 / deadzone=21,11 / fast_pskip=0 / chroma_qp_offset=-3 / threads=12 / lookahead_threads=2 / sliced_threads=0 / nr=0 / decimate=0 / interlaced=0 / bluray_compat=0 / constrained_intra=0 / bframes=9 / b_pyramid=2 / b_adapt=2 / b_bias=0 / direct=3 / weightb=1 / open_gop=0 / weightp=2 / keyint=250 / keyint_min=25 / scenecut=40 / intra_refresh=0 / rc=2pass / mbtree=0 / bitrate=2150 / ratetol=1.0 / qcomp=0.60 / qpmin=0 / qpmax=39 / qpstep=4 / cplxblur=20.0 / qblur=0.5 / ip_ratio=1.40 / pb_ratio=1.30 / aq=1:1.00
Язык : English
Default : Да
Forced : Нет
Цветовой диапазон : Limited
Основные цвета : BT.601 PAL
Характеристики трансфера : BT.470 System B, BT.470 System G
Коэффициенты матрицы : BT.601
Аудио #1
Идентификатор : 2
Формат : AC-3
Формат/Информация : Audio Coding 3
Расширение режима : CM (complete main)
Параметр Endianness формата : Big
Идентификатор кодека : A_AC3
Продолжительность : 1 ч. 3 м.
Вид битрейта : Постоянный
Битрейт : 448 Кбит/сек
Каналы : 6 каналов
Расположение каналов : Front: L C R, Side: L R, LFE
Частота : 48,0 КГц
Метод сжатия : С потерями
Задержка видео : 703 мс.
Размер потока : 204 Мбайт (16%)
Язык : Russian
Default : Да
Forced : Нет
Аудио #2
Идентификатор : 3
Формат : AC-3
Формат/Информация : Audio Coding 3
Расширение режима : CM (complete main)
Параметр Endianness формата : Big
Идентификатор кодека : A_AC3
Продолжительность : 1 ч. 3 м.
Вид битрейта : Постоянный
Битрейт : 224 Кбит/сек
Каналы : 1 канал
Расположение каналов : Front: C
Частота : 48,0 КГц
Метод сжатия : С потерями
Задержка видео : 703 мс.
Размер потока : 102 Мбайт (8%)
Язык : Russian
Default : Нет
Forced : Нет
Меню
00:00:00.000 : en:01. Пролог. Судьбоносная встреча
00:09:52.200 : en:02. Председатель
00:17:58.800 : en:03. Члены Клуба
00:24:29.400 : en:04. За карточным столом.Страшная весть
00:33:46.200 : en:05. Пиковый туз
00:38:50.400 : en:06. "Похищение" и арест
00:43:26.400 : en:07. Мудрое решение Принца
00:49:01.800 : en:08. Поездка в Европу
00:54:45.000 : en:09. Дом генерала Венделера. Исчезновение председателя

Релиз от:
Автор релиза:



   Похожие торренты   Торрент   Размер 
В этой теме нет новых непрочитанных сообщений. Приключения принца Флоризеля / Клуб самоубийц или Приключения титулованной особы (1979) DVDRip

35 | 5

3.28 ГБ

В этой теме нет новых непрочитанных сообщений. Приключения принца Флоризеля / Клуб самоубийц, или Приключения титулованной особы (1979) DVDRip-AVC

307 | 37

3.4 ГБ

В этой теме нет новых непрочитанных сообщений. Приключения принца Флоризеля / Клуб самоубийц, или Приключения титулованной особы (1979) DVDRip от FREEISLAND

63 | 13

4.1 ГБ

В этой теме нет новых непрочитанных сообщений. Приключения принца Флоризеля / Клуб самоубийц или Приключения титулованной особы (1979) DVDRip by гаврила

115 | 10

2.04 ГБ

В этой теме нет новых непрочитанных сообщений. Приключения принца Флоризеля / Клуб самоубийц или Приключения титулованной особы (1979) DVD9

33 | 3

7.25 ГБ

В этой теме нет новых непрочитанных сообщений. Приключения принца Флоризеля (1979) DVDRip | Реставрация

40 | 35

2.04 ГБ

В этой теме нет новых непрочитанных сообщений. Стивенсон Р. Л. – Приключения принца Флоризеля (2007) МР3

22 | 22

490.62 МБ




Вы не можете начинать темы
Вы не можете отвечать на сообщения
Вы не можете редактировать свои сообщения
Вы не можете удалять свои сообщения
Вы не можете добавлять вложения

Перейти:  
Для Мосгорсуда, Роскомнадзора и рекламодателей: mosgorsud-torrent[собачка]yandex.ru
Настройки
ppkBB3cker v.2 © 2008-2014 @ PPK
[ Time : 0.019s | 16 Queries | GZIP : Off ]
CGP [Extreme] output time : 0.00015s | 0 Queries | GZIP : Off

Торрент трекер RUTOR.IN, Не можете зайти на rutor.org? Какой новый адрес рутор? Какое зеркало рутор? Не работает rutor.org и зеркала? Тогда наш торрент специально для вас. Rutor.in неофициальное зеркало rutor. В случае если у Вас заблокирован rutor или вдруг Вы не можете на него зайти, то Вы без труда сможете скачать бесплатно и без рекламы последние новинки кино, игр, сериалов и прочего у нас, на Rutor.in. Не нужно использовать прокси, чтобы зайти на рутор, достаточно воспользоваться нашим ресурсом. Все новые фильмы, игры, сериалы, книги и музыка за 2013 и 2014 годы через торрент бесплатно. Скачивайте фильмы в хорошем качестве, игры для пк, xbox, playstation без регистрации. У нас вы найдете новые Зарубежные сериалы и Русские сериалы 2013, 2014, 2015 годов. Оставайтесь с нами, качайте любимые фильмы, игры, сериалы, книги и музыку.