img image001 image001 image001 image001 image001 image001 image001 image001 image001 image001 image001 image001 image001 image001 image001

Planets Sun Sun Sun
Статистика раздачи
Автор: Nickolas3434 | Размер: 744.4 МБ | Добавлен: 06 апр 2016
Раздают: 14    Качают: 4
Скачать торрент
Скачать торрент
Описание торрента

СообщениеДобавлено: 06 апр 2016 

Страна: СССР
Производство: Мосфильм
Жанр: драма, комедия
Год выпуска: 19 октября 1953
Продолжительность: 01:37:59
Перевод: Не требуется
Cубтитры: нет
Оригинальная аудиодорожка: русский
Режиссер: Абрам Роом
В ролях:
Михаил Болдуман, Софья Пилявская, Валентина Ушакова, Николай Тимофеев, Всеволод Ларионов, Владимир Белокуров, Ростислав Плятт, Григорий Кириллов, Александр Ханов, Валерий Лекарев, Геннадий Юдин, Зана Занони, Д. Колмогоров, Александр Пелевин, Лидия Смирнова, Осип Абдулов...
Полный список актёров
Описание:
Экранизация пьесы А.Якобсона "Шакалы".
Американский ученый профессор Стил изобретает мощное оружие массового уничтожения - радиоактивную серебристо-серую пыль. Вокруг этого избретения разгорается ожесточенная борьба двух военно-промышленных трестов-гигантов, одна из которых подкупает гангстеров - и те убивают Стила, назначившего непомерно высокую цену за свое изобретение. Его старший сын Гарри придает гласности чудовищное изобретение отца, а младший сын, член фашистской партии, становится первой жертвой смертоносного действия серебристой пыли.





Источник: DVD5 R5
Качество видео: DVDRip
Формат видео: AVI
Видео: 576x432 (4:3), 25 fps, XviD ~ 924 kbps avg, 0.149 bit/pixel
Аудио: 48 kHz, MP3 2.0, 128 kbps
Раздача от:
Общее
Полное имя : Serebristaya.pyl.1953.DVDRip-745_[New-team]_by_AVP_Studio.avi
Формат : AVI
Формат/Информация : Audio Video Interleave
Размер файла : 744 Мбайт
Продолжительность : 1 ч. 37 м.
Общий поток : 1062 Кбит/сек
Программа кодирования : VirtualDubMod 1.5.10.3 | www.virtualdub-fr.org || (build 2550/release)
Библиотека кодирования : VirtualDubMod build 2550/release
Видео
Идентификатор : 0
Формат : MPEG-4 Visual
Профиль формата : Advanced Simple@L5
Параметр BVOP формата : 1
Параметр QPel формата : Нет
Параметр GMC формата : Без точки перехода
Параметр матрицы формата : Выборочная
Идентификатор кодека : XVID
Идентификатор кодека/Подсказка : XviD
Продолжительность : 1 ч. 37 м.
Битрейт : 924 Кбит/сек
Ширина : 576 пикселей
Высота : 432 пикселя
Соотношение сторон : 4:3
Частота кадров : 25,000 кадров/сек
Цветовое пространство : YUV
Субдискретизация насыщенности : 4:2:0
Битовая глубина : 8 бит
Тип развёртки : Прогрессивная
Метод сжатия : С потерями
Бит/(Пиксели*Кадры) : 0.149
Размер потока : 648 Мбайт (87%)
Библиотека кодирования : XviD 1.2.1 (UTC 2008-12-04)
Аудио
Идентификатор : 1
Формат : MPEG Audio
Версия формата : Version 1
Профиль формата : Layer 3
Идентификатор кодека : 55
Идентификатор кодека/Подсказка : MP3
Продолжительность : 1 ч. 37 м.
Вид битрейта : Постоянный
Битрейт : 128 Кбит/сек
Каналы : 2 канала
Частота : 48,0 КГц
Метод сжатия : С потерями
Размер потока : 89,7 Мбайт (12%)
Выравнивание : Соединение по промежуткам
Продолжительность промежутка : 40 мс. (1,00 видеокадр)
Время предзагрузки промежутка : 504 мс.
Библиотека кодирования : LAME3.99r
Настройки программы : -m s -V 4 -q 2 -lowpass 17 -b 128





   Похожие торренты   Торрент   Размер 
В этой теме нет новых непрочитанных сообщений. Серебристая пыль (1953) DVDRip от New-Team

6 | 1

1.46 ГБ

В этой теме нет новых непрочитанных сообщений. Серебристая пыль (1953) DVDRip-AVC от New-Team

21 | 1

1.46 ГБ

В этой теме нет новых непрочитанных сообщений. Серебристая пыль (1953) DVDRip

15 | 7

1.36 ГБ

В этой теме нет новых непрочитанных сообщений. Чук и Гек (1953) DVDRip-AVC от New-Team

164 | 27

744.41 МБ

В этой теме нет новых непрочитанных сообщений. Чук и Гек (1953) DVDRip от New-Team

669 | 23

745.12 МБ

В этой теме нет новых непрочитанных сообщений. Тени (1953) DVDRip от New-Team

1 | 1

1.46 ГБ

В этой теме нет новых непрочитанных сообщений. Враги (1953) DVDRip от New-Team

14 | 9

2.18 ГБ




Вы не можете начинать темы
Вы не можете отвечать на сообщения
Вы не можете редактировать свои сообщения
Вы не можете удалять свои сообщения
Вы не можете добавлять вложения

Перейти:  
Для Мосгорсуда, Роскомнадзора и рекламодателей: mosgorsud-torrent[собачка]yandex.ru
 Вход
ppkBB3cker v.2 © 2008-2014 @ PPK
[ Time : 0.066s | 16 Queries | GZIP : Off ]

Торрент трекер RUTOR.IN, Не можете зайти на rutor.org? Какой новый адрес рутор? Какое зеркало рутор? Не работает rutor.org и зеркала? Тогда наш торрент специально для вас. Rutor.in неофициальное зеркало rutor. В случае если у Вас заблокирован rutor или вдруг Вы не можете на него зайти, то Вы без труда сможете скачать бесплатно и без рекламы последние новинки кино, игр, сериалов и прочего у нас, на Rutor.in. Не нужно использовать прокси, чтобы зайти на рутор, достаточно воспользоваться нашим ресурсом. Все новые фильмы, игры, сериалы, книги и музыка за 2013 и 2014 годы через торрент бесплатно. Скачивайте фильмы в хорошем качестве, игры для пк, xbox, playstation без регистрации. У нас вы найдете новые Зарубежные сериалы и Русские сериалы 2013, 2014, 2015 годов. Оставайтесь с нами, качайте любимые фильмы, игры, сериалы, книги и музыку.
cron