img image001 image001 image001 image001 image001 image001 image001 image001 image001 image001 image001 image001 image001 image001 image001

Planets Sun Sun Sun
Статистика раздачи
Автор: Nickolas3434 | Размер: 1.53 ГБ | Добавлен: 08 апр 2016
Раздают: 473    Качают: 48
Скачать торрент
Скачать торрент
Описание торрента

СообщениеДобавлено: 08 апр 2016 


Информация о фильме
Название: Дачная поездка сержанта Цыбули
Год выхода: 1979
Жанр: Комедия, военный
Режиссер: Николай Литус, Виталий Шунько
В ролях: Сергей Иванов, Владимир Алексеенко, Михаил Кокшенов, Надежда Смирнова, Володя Чубарев, Михаил Львов, Нина Реус, Степан Олексенко, Сергей Свечников, Маргарита Криницына, Николай Литус, Борис Сабуров, Евгений Мажуга, Полина (Пелагея) Куманченко, Сергей Шеметило, Владимир Бездомников, Геннадий Болотов, Георгий Дворников, Леонид Марченко, Юрий Мысенков, Лев Перфилов, Анатолий Помилуйко, Анатолий Сиротенко, Анатолий Скорякин, Василий Фущич, Виктор Андриенко
О фильме:
Разведчик, сержант Цыбуля, успешно выполнив очередное задание, снова отправляется в тыл к немцам. Теперь ему поручено доставить партизанам медикаменты, продовольствие и взрывчатку.
Приняв костры врага за опознавательные сигналы партизан, Цыбуля приземляется в логове противника… Но, перехитрив своих преследователей и захватив в плен немецкого майора, он все-таки прорывается к партизанам на вражеском бронепоезде.

Страна: СССР
Студия: Киностудия им. А. Довженко
Продолжительность: 01:12:30
Перевод: Не требуется
Файл
Качество: HDTVRip 720p
Кодек: MPEG-4 AVC
Видео: 1280х546 (2,35:1), 25 fps, MPEG-4 AVC ~ 2795 kbps avg, 0.160 bit/pixel
Звук: MP2, 48 kHz, 2 ch, ~224.00 kbps avg | русский
Субтитры: Отсутствуют
Семпл
Общее
Уникальный идентификатор : 204899941586086188975183885645688052539 (0x9A264B1663AA5CDDB3531CB9A7E39B3B)
Полное имя : Dachnaja.poezdka.serzhanta.Cibuli.1979.HDTVRip.720.mkv
Формат : Matroska
Версия формата : Version 4 / Version 2
Размер файла : 1,53 Гбайт
Продолжительность : 1 ч. 12 м.
Общий поток : 3021 Кбит/сек
Название фильма : Dachnaja.poezdka.serzhanta.Cibuli.1979.HDTVRip.720
Дата кодирования : UTC 2016-04-06 19:32:45
Программа кодирования : mkvmerge v8.3.0 ('Over the Horizon') 64bit
Библиотека кодирования : libebml v1.3.1 + libmatroska v1.4.2
Видео
Идентификатор : 1
Формат : AVC
Формат/Информация : Advanced Video Codec
Профиль формата : High@L4.1
Параметр CABAC формата : Да
Параметр ReFrames формата : 9 кадров
Идентификатор кодека : V_MPEG4/ISO/AVC
Продолжительность : 1 ч. 12 м.
Битрейт : 2795 Кбит/сек
Ширина : 1280 пикселей
Высота : 546 пикселей
Соотношение сторон : 2,35:1
Режим частоты кадров : Постоянный
Частота кадров : 25,000 кадров/сек
Цветовое пространство : YUV
Субдискретизация насыщенности : 4:2:0
Битовая глубина : 8 бит
Тип развёртки : Прогрессивная
Бит/(Пиксели*Кадры) : 0.160
Размер потока : 1,42 Гбайт (93%)
Заголовок : Dachnaja.poezdka.serzhanta.Cibuli.1979.HDTVRip.720
Библиотека кодирования : x264 core 146 r2538 121396c
Настройки программы : cabac=1 / ref=9 / deblock=1:-1:-1 / analyse=0x3:0x133 / me=umh / subme=9 / psy=1 / psy_rd=1.00:0.15 / mixed_ref=1 / me_range=32 / chroma_me=1 / trellis=2 / 8x8dct=1 / cqm=0 / deadzone=21,11 / fast_pskip=1 / chroma_qp_offset=-3 / threads=6 / lookahead_threads=1 / sliced_threads=0 / nr=0 / decimate=0 / interlaced=0 / bluray_compat=0 / constrained_intra=0 / bframes=7 / b_pyramid=2 / b_adapt=2 / b_bias=0 / direct=3 / weightb=1 / open_gop=0 / weightp=2 / keyint=240 / keyint_min=23 / scenecut=40 / intra_refresh=0 / rc_lookahead=40 / rc=2pass / mbtree=0 / bitrate=2795 / ratetol=1.0 / qcomp=0.60 / qpmin=10 / qpmax=51 / qpstep=4 / cplxblur=20.0 / qblur=0.5 / vbv_maxrate=50000 / vbv_bufsize=62500 / nal_hrd=none / filler=0 / ip_ratio=1.40 / pb_ratio=1.30 / aq=1:1.00
Язык : Russian
Default : Да
Forced : Нет
Аудио
Идентификатор : 2
Формат : MPEG Audio
Версия формата : Version 1
Профиль формата : Layer 2
Идентификатор кодека : A_MPEG/L2
Идентификатор кодека/Подсказка : MP2
Продолжительность : 1 ч. 12 м.
Вид битрейта : Постоянный
Битрейт : 224 Кбит/сек
Каналы : 2 канала
Частота : 48,0 КГц
Частота кадров : 41,667 кадра/сек (1152 spf)
Метод сжатия : С потерями
Размер потока : 116 Мбайт (7%)
Заголовок : MP2-2 канала
Язык : Russian
Default : Да
Forced : Нет



   Похожие торренты   Торрент   Размер 
В этой теме нет новых непрочитанных сообщений. Дачная поездка сержанта Цыбули (1979) HDTVRip

224 | 26

743.18 МБ

В этой теме нет новых непрочитанных сообщений. Дачная поездка сержанта Цыбули (1979) HDTVRip от ImperiaFilm

40 | 5

1.33 ГБ

В этой теме нет новых непрочитанных сообщений. Дачная поездка сержанта Цыбули (1979) DVDRip

81 | 11

1.37 ГБ

В этой теме нет новых непрочитанных сообщений. Дачная поездка сержанта Цыбули (1979) DVDRip - Files-x

4 | 12

1.46 ГБ

В этой теме нет новых непрочитанных сообщений. Дачная поездка сержанта Цыбули (1979) SATRip-AVC от ExKinoRay

105 | 5

1.21 ГБ

В этой теме нет новых непрочитанных сообщений. Дачная поездка сержанта Цыбули (1979) DVDRip от Alekxandr48

6 | 3

700.43 МБ

В этой теме нет новых непрочитанных сообщений. Дачная поездка сержанта Цыбули (1979) DVDRip-AVC от New-Team

86 | 11

1.45 ГБ




Вы не можете начинать темы
Вы не можете отвечать на сообщения
Вы не можете редактировать свои сообщения
Вы не можете удалять свои сообщения
Вы не можете добавлять вложения

Перейти:  
Для Мосгорсуда, Роскомнадзора и рекламодателей: mosgorsud-torrent[собачка]yandex.ru
 Вход
ppkBB3cker v.2 © 2008-2014 @ PPK
[ Time : 0.023s | 14 Queries | GZIP : Off ]

Торрент трекер RUTOR.IN, Не можете зайти на rutor.org? Какой новый адрес рутор? Какое зеркало рутор? Не работает rutor.org и зеркала? Тогда наш торрент специально для вас. Rutor.in неофициальное зеркало rutor. В случае если у Вас заблокирован rutor или вдруг Вы не можете на него зайти, то Вы без труда сможете скачать бесплатно и без рекламы последние новинки кино, игр, сериалов и прочего у нас, на Rutor.in. Не нужно использовать прокси, чтобы зайти на рутор, достаточно воспользоваться нашим ресурсом. Все новые фильмы, игры, сериалы, книги и музыка за 2013 и 2014 годы через торрент бесплатно. Скачивайте фильмы в хорошем качестве, игры для пк, xbox, playstation без регистрации. У нас вы найдете новые Зарубежные сериалы и Русские сериалы 2013, 2014, 2015 годов. Оставайтесь с нами, качайте любимые фильмы, игры, сериалы, книги и музыку.