img image001 image001 image001 image001 image001 image001 image001 image001 image001 image001 image001 image001 image001 image001 image001 image001

Planets Sun Sun Sun
Статистика раздачи
Автор: Nickolas3434 | Размер: 743.64 МБ | Добавлен: 09 апр 2016
Раздают: 4    Качают: 4
Скачать торрент
Скачать торрент
Описание торрента

СообщениеДобавлено: 09 апр 2016 

Страна: СССР
Производство: Ереванская киностудия
Жанр: приключения, семейный
Год выпуска: 18 марта 1954
Продолжительность: 01:06:24
Перевод: Не требуется
Cубтитры: нет
Оригинальная аудиодорожка: русский
Режиссер: Александр Роу, Яков Кочарян
В ролях:
Гурген Габриелян, Е. Арутюнян, Ванцетти Даниелян, Георгий Ашугян, Татул Дилакян, Арусь Асрян, Леонид Леонидов (III), Лилия Оганесян, Борис Керопян, Кнарик Сароян, Нелли Мелкумян, Виктория Терзибашян, Нерсик Оганесян, Ромик Погосян, Рубик Ханзадян, Владимир Феоктистов (II), Роберт Мкртчян, Альберт Акопян, Ваган Багратуни, Гарри Мушегян...
Полный список актёров
Описание:
По повести В. Ананяна «На берегу Севана».
Полям и садам большого селения, находящегося в горах Армении, не хватает воды. Согласно преданиям, в древние времена здесь протекала река, которую злое чудовище упрятало от непокорных людей. Однажды в селение приезжают геологи. Школьники Камо, Никита и Грикор решают помочь экспедиции и отправляются в поход. Пионеры находят в горах осколок старинной плиты и узнают, что река исчезла после землетрясения. Они отправляются в горы, чтобы сообщить геологам о важном открытии. Неожиданно начавшаяся гроза вынуждает ребят укрыться в пещере, выход из которой вскоре заваливает. Блуждая в таинственных подземных лабиринтах, ребята обнаруживают исчезнувшую реку.





Источник: DVD5 R5
Качество видео: DVDRip
Формат видео: AVI
Видео: 688x512 (4:3), 25 fps, XviD ~ 1428 kbps avg, 0.162 bit/pixel
Аудио: 48 kHz, MP3 2.0, 128 kbps
Раздача от:
Общее
Полное имя : Tayna.gornogo.ozera.1954.DVDRip_[New-team]_by_AVP_Studio.avi
Формат : AVI
Формат/Информация : Audio Video Interleave
Размер файла : 744 Мбайт
Продолжительность : 1 ч. 6 м.
Общий поток : 1566 Кбит/сек
Программа кодирования : VirtualDubMod 1.5.10.3 | www.virtualdub-fr.org || (build 2550/release)
Библиотека кодирования : VirtualDubMod build 2550/release
Видео
Идентификатор : 0
Формат : MPEG-4 Visual
Профиль формата : Advanced Simple@L5
Параметр BVOP формата : 1
Параметр QPel формата : Нет
Параметр GMC формата : Без точки перехода
Параметр матрицы формата : Выборочная
Идентификатор кодека : XVID
Идентификатор кодека/Подсказка : XviD
Продолжительность : 1 ч. 6 м.
Битрейт : 1428 Кбит/сек
Ширина : 688 пикселей
Высота : 512 пикселей
Соотношение сторон : 4:3
Частота кадров : 25,000 кадров/сек
Цветовое пространство : YUV
Субдискретизация насыщенности : 4:2:0
Битовая глубина : 8 бит
Тип развёртки : Прогрессивная
Метод сжатия : С потерями
Бит/(Пиксели*Кадры) : 0.162
Размер потока : 678 Мбайт (91%)
Библиотека кодирования : XviD 1.2.1 (UTC 2008-12-04)
Аудио
Идентификатор : 1
Формат : MPEG Audio
Версия формата : Version 1
Профиль формата : Layer 3
Идентификатор кодека : 55
Идентификатор кодека/Подсказка : MP3
Продолжительность : 1 ч. 6 м.
Вид битрейта : Постоянный
Битрейт : 128 Кбит/сек
Каналы : 2 канала
Частота : 48,0 КГц
Метод сжатия : С потерями
Размер потока : 60,8 Мбайт (8%)
Выравнивание : Соединение по промежуткам
Продолжительность промежутка : 40 мс. (1,00 видеокадр)
Время предзагрузки промежутка : 504 мс.
Библиотека кодирования : LAME3.99r
Настройки программы : -m s -V 4 -q 2 -lowpass 17 -b 128





   Похожие торренты   Торрент   Размер 
В этой теме нет новых непрочитанных сообщений. Тайна горного озера (1954) DVDRip-AVC от New-Team

5 | 4

744.18 МБ

В этой теме нет новых непрочитанных сообщений. Андриеш (1954) DVDRip от New-Team

6 | 0

744.13 МБ

В этой теме нет новых непрочитанных сообщений. Андриеш (1954) DVDRip-AVC от New-Team

5 | 3

744.17 МБ

В этой теме нет новых непрочитанных сообщений. Школа мужества (1954) DVDRip от New-Team

6 | 7

1.09 ГБ

В этой теме нет новых непрочитанных сообщений. Запасной игрок (1954) DVDRip от New-Team

5 | 0

1.09 ГБ

В этой теме нет новых непрочитанных сообщений. Школа мужества (1954) DVDRip-AVC от New-Team

18 | 4

1.09 ГБ

В этой теме нет новых непрочитанных сообщений. Запасной игрок (1954) DVDRip от New-Team

8 | 1

744.2 МБ




Вы не можете начинать темы
Вы не можете отвечать на сообщения
Вы не можете редактировать свои сообщения
Вы не можете удалять свои сообщения
Вы не можете добавлять вложения

Перейти:  
 Вход
ppkBB3cker v.2 © 2008-2014 @ PPK
[ Time : 0.028s | 16 Queries | GZIP : Off ]

cron