img image001 image001 image001 image001 image001 image001 image001 image001 image001 image001 image001 image001 image001 image001 image001

Planets Sun Sun Sun
Статистика раздачи
Автор: Nickolas3434 | Размер: 3.47 ГБ | Добавлен: 09 апр 2016
Раздают: 42    Качают: 5
Скачать торрент
Скачать торрент
Описание торрента

СообщениеДобавлено: 09 апр 2016 


Информация о фильме
Название: Иван Грозный
Год выхода: 1944-1945
Жанр: Исторический, драма
Режиссер: Сергей Эйзенштейн
В ролях: Николай Черкасов, Людмила Целиковская, Серафима Бирман, Павел Кадочников, Михаил Жаров, Амвросий Бучма, Михаил Кузнецов, Михаил Названов, Андрей Абрикосов, Александр Мгебров, Всеволод Пудовкин, Павел Массальский, Владимир Балашов, Эрик Пырьев, Георгий Вицин, Анель Судакевич, Борис Жуковский
О фильме:
Это фильм о человеке, который в XVI столетии впервые объединил нашу страну и из отдельных разобщенных и своекорыстных княжеств создал единое мощное государство, о государе, впервые возложившем на себя венец Царя Всея Руси, об одной из самых сложных, мощных и противоречивых личностей, - о царе Иоанне Васильевиче, вошедшем в историю под именем Грозный. Сказ второй, "Боярский заговор", чудом уцелевший в сталинские годы повествует и о страшной цене, которую заплатил царь Иван за свое царствование...
Страна: СССР, Мосфильм
Продолжительность: 01:39:23 + 01:25:52
Перевод: не требуется
Файл
Кодек: x264
Качество: DVDRip-AVC
Видео: MPEG-4 AVC, 2552 Кбит/с, 706x466@706x524
Звук: AC3, 1 ch, 128 Кбит/с

Издатель Criterion
Дата релиза /Год 2001
Видеостандарт NTSC
Тип диска DVD9x2
Размер диска /Gb 7.59
Формат видео /AR 4:3(1,33:1)
http://www.vobzor.com/page.php?id=418
=================================
Плавающее наполнение кадра, но в отличии от ПАЛовского исходника, большее наполнение и лучше качество картинки.
http://screenshotcomparison.com/compari ... /picture:0

raw [info]: 706x466p 8:9 @ 24000/1001 fps (cfr)
x264 [info]: using SAR=8/9
x264 [info]: using cpu capabilities: MMX2 SSE2Fast SSSE3 SSE4.2 AVX
x264 [info]: profile High, level 4.1
x264 [info]: frame I:965 Avg QP:16.00 size: 68382
x264 [info]: frame P:37279 Avg QP:19.02 size: 27325
x264 [info]: frame B:104731 Avg QP:21.56 size: 7807
==================================================================================================================
Общее
Уникальный идентификатор : 247958997133802121649367188376851531934 (0xBA8B2A6EFC94DF5D8C372D19E007489E)
Полное имя : R:МОИ РИПЫИван Грозный_1944-45-DVDRip-AVCИван Грозный-1.mkv
Формат : Matroska
Версия формата : Version 2
Размер файла : 1,86 Гбайт
Продолжительность : 1 ч. 39 м.
Общий поток : 2682 Кбит/сек
Дата кодирования : UTC 2016-04-04 20:33:12
Программа кодирования : mkvmerge v5.8.0 ('No Sleep / Pillow') built on Sep 2 2012 15:37:04
Библиотека кодирования : libebml v1.2.3 + libmatroska v1.3.0
Видео
Идентификатор : 1
Формат : AVC
Формат/Информация : Advanced Video Codec
Профиль формата : High@L4.1
Параметр CABAC формата : Да
Параметр ReFrames формата : 15 кадров
Идентификатор кодека : V_MPEG4/ISO/AVC
Продолжительность : 1 ч. 39 м.
Битрейт : 2552 Кбит/сек
Ширина : 706 пикселей
Высота : 466 пикселей
Соотношение сторон : 4:3
Режим частоты кадров : Постоянный
Частота кадров : 23,976 кадра/сек
Цветовое пространство : YUV
Субдискретизация насыщенности : 4:2:0
Битовая глубина : 8 бит
Тип развёртки : Прогрессивная
Бит/(Пиксели*Кадры) : 0.324
Размер потока : 1,74 Гбайт (93%)
Библиотека кодирования : x264 core 148 r2638 7599210
Настройки программы : cabac=1 / ref=15 / deblock=1:-2:-2 / analyse=0x3:0x133 / me=umh / subme=10 / psy=1 / psy_rd=1.00:0.10 / mixed_ref=1 / me_range=32 / chroma_me=1 / trellis=2 / 8x8dct=1 / cqm=0 / deadzone=21,11 / fast_pskip=0 / chroma_qp_offset=-3 / threads=12 / lookahead_threads=2 / sliced_threads=0 / nr=0 / decimate=0 / interlaced=0 / bluray_compat=0 / constrained_intra=0 / bframes=8 / b_pyramid=2 / b_adapt=2 / b_bias=0 / direct=3 / weightb=1 / open_gop=0 / weightp=2 / keyint=240 / keyint_min=23 / scenecut=40 / intra_refresh=0 / rc=2pass / mbtree=0 / bitrate=2552 / ratetol=1.0 / qcomp=0.63 / qpmin=0 / qpmax=39 / qpstep=4 / cplxblur=20.0 / qblur=0.5 / ip_ratio=1.40 / pb_ratio=1.30 / aq=1:0.90
Язык : English
Default : Да
Forced : Нет
Цветовой диапазон : Limited
Основные цвета : BT.601 NTSC
Характеристики трансфера : BT.601
Коэффициенты матрицы : BT.601
Аудио
Идентификатор : 2
Формат : AC-3
Формат/Информация : Audio Coding 3
Расширение режима : CM (complete main)
Параметр Endianness формата : Big
Идентификатор кодека : A_AC3
Продолжительность : 1 ч. 39 м.
Вид битрейта : Постоянный
Битрейт : 128 Кбит/сек
Каналы : 1 канал
Расположение каналов : Front: C
Частота : 48,0 КГц
Метод сжатия : С потерями
Размер потока : 91,0 Мбайт (5%)
Язык : Russian
Default : Да
Forced : Нет

Релиз от:
Автор релиза:



   Похожие торренты   Торрент   Размер 
В этой теме нет новых непрочитанных сообщений. Иван Грозный (1944-1945) DVDRip

385 | 24

2.85 ГБ

В этой теме нет новых непрочитанных сообщений. Иван Грозный (1944) DVDRip-AVC от New-Team

89 | 11

2.18 ГБ

В этой теме нет новых непрочитанных сообщений. Иван Грозный (1944) DVDRip от New-Team

15 | 11

1.46 ГБ

В этой теме нет новых непрочитанных сообщений. Иван Грозный (1944) DVDRip от New-Team

45 | 3

2.18 ГБ

В этой теме нет новых непрочитанных сообщений. Иван Грозный (2009) DVDRip

395 | 152

8.58 ГБ

В этой теме нет новых непрочитанных сообщений. Царь Иван Грозный (1991) DVDRip

89 | 11

2.17 ГБ

В этой теме нет новых непрочитанных сообщений. Царь Иван Грозный (1991) DVDRip от Youtracker

90 | 10

1.45 ГБ




Вы не можете начинать темы
Вы не можете отвечать на сообщения
Вы не можете редактировать свои сообщения
Вы не можете удалять свои сообщения
Вы не можете добавлять вложения

Перейти:  
Для Мосгорсуда, Роскомнадзора и рекламодателей: mosgorsud-torrent[собачка]yandex.ru
 Вход
ppkBB3cker v.2 © 2008-2014 @ PPK
[ Time : 0.029s | 15 Queries | GZIP : Off ]

Торрент трекер RUTOR.IN, Не можете зайти на rutor.org? Какой новый адрес рутор? Какое зеркало рутор? Не работает rutor.org и зеркала? Тогда наш торрент специально для вас. Rutor.in неофициальное зеркало rutor. В случае если у Вас заблокирован rutor или вдруг Вы не можете на него зайти, то Вы без труда сможете скачать бесплатно и без рекламы последние новинки кино, игр, сериалов и прочего у нас, на Rutor.in. Не нужно использовать прокси, чтобы зайти на рутор, достаточно воспользоваться нашим ресурсом. Все новые фильмы, игры, сериалы, книги и музыка за 2013 и 2014 годы через торрент бесплатно. Скачивайте фильмы в хорошем качестве, игры для пк, xbox, playstation без регистрации. У нас вы найдете новые Зарубежные сериалы и Русские сериалы 2013, 2014, 2015 годов. Оставайтесь с нами, качайте любимые фильмы, игры, сериалы, книги и музыку.
cron