img image001 image001 image001 image001 image001 image001 image001 image001 image001 image001 image001 image001 image001 image001 image001

Planets Sun Sun Sun
Статистика раздачи
Автор: Nickolas3434 | Размер: 1.59 ГБ | Добавлен: 09 апр 2016
Раздают: 27    Качают: 4
Скачать торрент
Скачать торрент
Описание торрента

СообщениеДобавлено: 09 апр 2016 


Информация о фильме
Название: Нежность
Год выхода: 1967
Жанр: Мелодрама
Режиссер: Эльёр Ишмухамедов
В ролях: Мария Стерникова, Родион Нахапетов, Мадина Махмудова, Светлана Бородина, Рустам Сагдуллаев, Джавлон Хамраев, Талят Рахимов, Шухрат Иргашев, Замира Хидоятова, Магомет Чочиев, Ровшан Агзамов
О фильме:
Фильм состоит из трех новелл («Санджар», «Лена», «Мамура»), связанных общими героями. Когда уходит детство и начинается другая, взрослая жизнь? Вряд ли серьезно задумывался об этом ташкенсткий мальчишка Санжар, главарь подростковой команды. Вместе с другими ребятами он плавал на автомобильных камерах по мутной городской реке Анхор, презирал девчонок, дрался с другими мальчишками. И вот — нежданная встреча с прекрасной и удивительной девушкой Леной. И горло перехватывает от предчувствия чего-то незнакомого и прекрасного, от соприкосновения с чудом, которое называется первой любовью. В Ташкент Лена была эвакуирована из блокадного Ленинграда. Это тяжелое время не сотрется из памяти никогда. С тех пор у нее больное сердце. Но сейчас Лена счастлива. Она влюблена и любима. Вместе с друзьями и любимым Тимуром она приезжает в степь, в старый кишлак. Беда подкралась неожиданно: спасая мальчика, Лена хватается руками за электрический провод…
Страна: СССР, Узбекфильм
Продолжительность: 01:10:25
Перевод: не требуется
Файл
Кодек: x264
Качество: DVDRip-AVC
Видео: MPEG-4, 2600 Кбит/с, 692x572@738x572
Звук: AC3, 6 ch, 448 Кбит/с, AC3, 2 ch, 192 Кбит/с

raw [info]: 692x572p 16:15 @ 25/1 fps (cfr)
x264 [info]: using SAR=16/15
x264 [info]: using cpu capabilities: MMX2 SSE2Fast SSSE3 SSE4.2 AVX
x264 [info]: profile High, level 4.1
x264 [info]: frame I:533 Avg QP:17.08 size: 56881
x264 [info]: frame P:30704 Avg QP:20.19 size: 25101
x264 [info]: frame B:74397 Avg QP:22.43 size: 7692
============================================================================================================================
Общее
Уникальный идентификатор : 190417053361006326867302766631667669419 (0x8F40FD915793C54AA239EF2D4FD099AB)
Полное имя : D:Нежность_1966-DVDRip-AVC.mkv
Формат : Matroska
Версия формата : Version 2
Размер файла : 1,59 Гбайт
Продолжительность : 1 ч. 10 м.
Общий поток : 3242 Кбит/сек
Дата кодирования : UTC 2016-04-02 17:04:51
Программа кодирования : mkvmerge v5.8.0 ('No Sleep / Pillow') built on Sep 2 2012 15:37:04
Библиотека кодирования : libebml v1.2.3 + libmatroska v1.3.0
Видео
Идентификатор : 1
Формат : AVC
Формат/Информация : Advanced Video Codec
Профиль формата : High@L4.1
Параметр CABAC формата : Да
Параметр ReFrames формата : 16 кадров
Идентификатор кодека : V_MPEG4/ISO/AVC
Продолжительность : 1 ч. 10 м.
Битрейт : 2600 Кбит/сек
Ширина : 692 пикселя
Высота : 572 пикселя
Соотношение сторон : 1,290
Режим частоты кадров : Постоянный
Частота кадров : 25,000 кадров/сек
Цветовое пространство : YUV
Субдискретизация насыщенности : 4:2:0
Битовая глубина : 8 бит
Тип развёртки : Прогрессивная
Бит/(Пиксели*Кадры) : 0.263
Размер потока : 1,25 Гбайт (78%)
Библиотека кодирования : x264 core 148 r2638 7599210
Настройки программы : cabac=1 / ref=16 / deblock=1:-2:-2 / analyse=0x3:0x133 / me=umh / subme=10 / psy=1 / psy_rd=1.05:0.10 / mixed_ref=1 / me_range=32 / chroma_me=1 / trellis=2 / 8x8dct=1 / cqm=0 / deadzone=21,11 / fast_pskip=0 / chroma_qp_offset=-3 / threads=12 / lookahead_threads=2 / sliced_threads=0 / nr=0 / decimate=0 / interlaced=0 / bluray_compat=0 / constrained_intra=0 / bframes=8 / b_pyramid=2 / b_adapt=2 / b_bias=0 / direct=3 / weightb=1 / open_gop=0 / weightp=2 / keyint=250 / keyint_min=25 / scenecut=40 / intra_refresh=0 / rc=2pass / mbtree=0 / bitrate=2600 / ratetol=1.0 / qcomp=0.63 / qpmin=0 / qpmax=39 / qpstep=4 / cplxblur=20.0 / qblur=0.5 / ip_ratio=1.40 / pb_ratio=1.30 / aq=1:1.00
Язык : English
Default : Да
Forced : Нет
Цветовой диапазон : Limited
Основные цвета : BT.601 PAL
Характеристики трансфера : BT.470 System B, BT.470 System G
Коэффициенты матрицы : BT.601
Аудио #1
Идентификатор : 2
Формат : AC-3
Формат/Информация : Audio Coding 3
Расширение режима : CM (complete main)
Параметр Endianness формата : Big
Идентификатор кодека : A_AC3
Продолжительность : 1 ч. 10 м.
Вид битрейта : Постоянный
Битрейт : 448 Кбит/сек
Каналы : 6 каналов
Расположение каналов : Front: L C R, Side: L R, LFE
Частота : 48,0 КГц
Метод сжатия : С потерями
Размер потока : 226 Мбайт (14%)
Язык : Russian
Default : Да
Forced : Нет
Аудио #2
Идентификатор : 3
Формат : AC-3
Формат/Информация : Audio Coding 3
Расширение режима : CM (complete main)
Параметр Endianness формата : Big
Идентификатор кодека : A_AC3
Продолжительность : 1 ч. 10 м.
Вид битрейта : Постоянный
Битрейт : 192 Кбит/сек
Каналы : 2 канала
Расположение каналов : Front: L R
Частота : 48,0 КГц
Метод сжатия : С потерями
Размер потока : 96,7 Мбайт (6%)
Язык : Russian
Default : Нет
Forced : Нет

Релиз от:
Автор релиза:



   Похожие торренты   Торрент   Размер 
В этой теме нет новых непрочитанных сообщений. Операция «Трест» (1967) DVDRip-AVC от ExKinoRay

51 | 4

5.89 ГБ

В этой теме нет новых непрочитанных сообщений. Майор Вихрь (1967) DVDRip-AVC от ExKinoRay

276 | 2

3.59 ГБ

В этой теме нет новых непрочитанных сообщений. Вестерплатте / Westerplatte (1967) DVDRip от ExKinoRay

4 | 53

1.37 ГБ

В этой теме нет новых непрочитанных сообщений. Восьмёрка беглецов / Eight on the Lam (1967) DVDRip от ExKinoRay | P2

15 | 3

1.37 ГБ

В этой теме нет новых непрочитанных сообщений. Дьявольски ваш / Diaboliquement vôtre (1967) DVDRip от ExKinoRay

7 | 7

1.47 ГБ

В этой теме нет новых непрочитанных сообщений. Красный берег / Beach Red (1967) DVDRip от ExKinoRay

20 | 8

1.38 ГБ

В этой теме нет новых непрочитанных сообщений. Жила-была... / C'era una volta (1967) DVDRip от ExKinoRay | P

78 | 12

1.46 ГБ




Вы не можете начинать темы
Вы не можете отвечать на сообщения
Вы не можете редактировать свои сообщения
Вы не можете удалять свои сообщения
Вы не можете добавлять вложения

Перейти:  
Для Мосгорсуда, Роскомнадзора и рекламодателей: mosgorsud-torrent[собачка]yandex.ru
 Вход
ppkBB3cker v.2 © 2008-2014 @ PPK
[ Time : 0.043s | 15 Queries | GZIP : Off ]

Торрент трекер RUTOR.IN, Не можете зайти на rutor.org? Какой новый адрес рутор? Какое зеркало рутор? Не работает rutor.org и зеркала? Тогда наш торрент специально для вас. Rutor.in неофициальное зеркало rutor. В случае если у Вас заблокирован rutor или вдруг Вы не можете на него зайти, то Вы без труда сможете скачать бесплатно и без рекламы последние новинки кино, игр, сериалов и прочего у нас, на Rutor.in. Не нужно использовать прокси, чтобы зайти на рутор, достаточно воспользоваться нашим ресурсом. Все новые фильмы, игры, сериалы, книги и музыка за 2013 и 2014 годы через торрент бесплатно. Скачивайте фильмы в хорошем качестве, игры для пк, xbox, playstation без регистрации. У нас вы найдете новые Зарубежные сериалы и Русские сериалы 2013, 2014, 2015 годов. Оставайтесь с нами, качайте любимые фильмы, игры, сериалы, книги и музыку.
cron