img image001 image001 image001 image001 image001 image001 image001 image001 image001 image001 image001 image001 image001 image001 image001

Planets Sun Sun Sun
Статистика раздачи
Автор: Nickolas3434 | Размер: 1.79 ГБ | Добавлен: 10 апр 2016
Раздают: 78    Качают: 4
Скачать торрент
Скачать торрент
Описание торрента

СообщениеДобавлено: 10 апр 2016 


Информация о фильме
Название: Живая мишень
Год выхода: 1990
Жанр: Боевик, детектив, криминал
Режиссер: Марк Айзенберг
В ролях: Александр Фатюшин, Александр Абдулов, Александр Пороховщиков, Эммануил Виторган, Игорь Кваша, Донатас Банионис, Вадим Захарченко, Ирэна Кокрятская, Сергей Куренков, Валентина Запевалова, Юрий Чекулаев, Владимир Плотников, Анатолий Мищенко, Вячеслав Богачёв
О фильме:
В небольшой провинциальный городок, полностью прибранный к рукам коррумпированными властями и мафиозным кланом, заслан с секретной миссией сотрудник центрального аппарата МВД с заданием выявить каналы незаконного обращения валюты и торговли наркотиками. И мафия, и "отцы города" всеми способами пытаются выявить агента, но он беспощаден и неуловим...
Страна: СССР, ЭТПО "Актер кино"
Продолжительность: 01:22:06
Перевод: не требуется
Файл
Кодек: x264
Качество: DVDRip-AVC
Видео: MPEG-4 AVC, ~ 2727 Кбит/с, 702x554@748x554
Звук: AC3, 6 ch, 384 Кбит/с

raw [info]: 702x554p 16:15 @ 25/1 fps (cfr)
x264 [info]: using SAR=16/15
x264 [info]: using cpu capabilities: MMX2 SSE2Fast SSSE3 SSE4.2 AVX
x264 [info]: profile High, level 4.1
x264 [info]: frame I:642 Avg QP:17.63 size: 61527
x264 [info]: frame P:32886 Avg QP:20.88 size: 26552
x264 [info]: frame B:89613 Avg QP:22.47 size: 8556
==============================================================================================================
Общее
Уникальный идентификатор : 187662363688990330934913522470033482837 (0x8D2E74E187A0148BB2A32AB73FC6E455)
Полное имя : D:Живая мишень_1990-DVDRip-AVC.mkv
Формат : Matroska
Версия формата : Version 2
Размер файла : 1,79 Гбайт
Продолжительность : 1 ч. 22 м.
Общий поток : 3113 Кбит/сек
Дата кодирования : UTC 2014-12-19 10:29:59
Программа кодирования : mkvmerge v5.2.0 ('I can't explain') built on Dec 18 2011 18:12:03
Библиотека кодирования : libebml v1.2.3 + libmatroska v1.3.0
Видео
Идентификатор : 1
Формат : AVC
Формат/Информация : Advanced Video Codec
Профиль формата : High@L4.1
Параметр CABAC формата : Да
Параметр ReFrames формата : 15 кадров
Идентификатор кодека : V_MPEG4/ISO/AVC
Продолжительность : 1 ч. 22 м.
Битрейт : 2727 Кбит/сек
Ширина : 702 пикселя
Высота : 554 пикселя
Соотношение сторон : 4:3
Соотношение сторон в оригинале : 4:3
Режим частоты кадров : Постоянный
Частота кадров : 25,000 кадров/сек
Цветовое пространство : YUV
Субдискретизация насыщенности : 4:2:0
Битовая глубина : 8 бит
Тип развёртки : Прогрессивная
Бит/(Пиксели*Кадры) : 0.280
Размер потока : 1,53 Гбайт (86%)
Библиотека кодирования : x264 core 142 r2431 ac76440
Настройки программы : cabac=1 / ref=15 / deblock=1:-2:-2 / analyse=0x3:0x133 / me=umh / subme=10 / psy=1 / psy_rd=1.05:0.15 / mixed_ref=1 / me_range=24 / chroma_me=1 / trellis=2 / 8x8dct=1 / cqm=0 / deadzone=21,11 / fast_pskip=0 / chroma_qp_offset=-3 / threads=12 / lookahead_threads=2 / sliced_threads=0 / nr=0 / decimate=0 / interlaced=0 / bluray_compat=0 / constrained_intra=0 / bframes=8 / b_pyramid=2 / b_adapt=2 / b_bias=0 / direct=1 / weightb=1 / open_gop=0 / weightp=2 / keyint=250 / keyint_min=25 / scenecut=40 / intra_refresh=0 / rc=2pass / mbtree=0 / bitrate=2727 / ratetol=1.0 / qcomp=0.60 / qpmin=0 / qpmax=39 / qpstep=4 / cplxblur=20.0 / qblur=0.5 / ip_ratio=1.40 / pb_ratio=1.30 / aq=1:1.00
Язык : English
Default : Да
Forced : Нет
Основные цвета : BT.601 PAL
Характеристики трансфера : BT.470 System B, BT.470 System G
Коэффициенты матрицы : BT.601
colour_range : Limited
Аудио
Идентификатор : 2
Формат : AC-3
Формат/Информация : Audio Coding 3
Расширение режима : CM (complete main)
Параметр Endianness формата : Big
Идентификатор кодека : A_AC3
Продолжительность : 1 ч. 22 м.
Вид битрейта : Постоянный
Битрейт : 384 Кбит/сек
Каналы : 6 каналов
Расположение каналов : Front: L C R, Side: L R, LFE
Частота : 48,0 КГц
Битовая глубина : 16 бит
Метод сжатия : С потерями
Размер потока : 225 Мбайт (12%)
Язык : Russian
Default : Да
Forced : Нет

Релиз от:
Автор релиза:



   Похожие торренты   Торрент   Размер 
В этой теме нет новых непрочитанных сообщений. Живая мишень (1990) DVDRip от ExKinoRay

522 | 14

1.37 ГБ

В этой теме нет новых непрочитанных сообщений. Легкая мишень / Простая мишень / Soft Target (2006) DVDRip от ExKinoRay

60 | 8

1.47 ГБ

В этой теме нет новых непрочитанных сообщений. Кровавый кулак 5: Живая мишень / Bloodfist V: Human Target (1994) DVDRip | РЕН-ТВ

61 | 10

1.36 ГБ

В этой теме нет новых непрочитанных сообщений. Живая Мишень / Human Target [S01] (2010) WEB-DL от NovaFILM

3 | 4

4.1 ГБ

В этой теме нет новых непрочитанных сообщений. Живая мишень / Human Target [S1] (2010) BDRip от HQCLUB

16 | 4

8.74 ГБ

В этой теме нет новых непрочитанных сообщений. Живая мишень / Human Target [S1] (2010) HDTV от LostFilm

1 | 9

16.88 ГБ

В этой теме нет новых непрочитанных сообщений. Живая мишень / Human Target [S01-02] (2010-2011) WEB-DLRip | LostFilm

8 | 28

10.54 ГБ




Вы не можете начинать темы
Вы не можете отвечать на сообщения
Вы не можете редактировать свои сообщения
Вы не можете удалять свои сообщения
Вы не можете добавлять вложения

Перейти:  
Для Мосгорсуда, Роскомнадзора и рекламодателей: mosgorsud-torrent[собачка]yandex.ru
 Вход
ppkBB3cker v.2 © 2008-2014 @ PPK
[ Time : 0.034s | 18 Queries | GZIP : Off ]

Торрент трекер RUTOR.IN, Не можете зайти на rutor.org? Какой новый адрес рутор? Какое зеркало рутор? Не работает rutor.org и зеркала? Тогда наш торрент специально для вас. Rutor.in неофициальное зеркало rutor. В случае если у Вас заблокирован rutor или вдруг Вы не можете на него зайти, то Вы без труда сможете скачать бесплатно и без рекламы последние новинки кино, игр, сериалов и прочего у нас, на Rutor.in. Не нужно использовать прокси, чтобы зайти на рутор, достаточно воспользоваться нашим ресурсом. Все новые фильмы, игры, сериалы, книги и музыка за 2013 и 2014 годы через торрент бесплатно. Скачивайте фильмы в хорошем качестве, игры для пк, xbox, playstation без регистрации. У нас вы найдете новые Зарубежные сериалы и Русские сериалы 2013, 2014, 2015 годов. Оставайтесь с нами, качайте любимые фильмы, игры, сериалы, книги и музыку.
cron