img image001 image001 image001 image001 image001 image001 image001 image001 image001 image001 image001 image001 image001 image001 image001

Planets Sun Sun Sun
Статистика раздачи
Автор: Nickolas3434 | Размер: 744.18 МБ | Добавлен: 09 апр 2016
Раздают: 13    Качают: 6
Скачать торрент
Скачать торрент
Описание торрента

СообщениеДобавлено: 09 апр 2016 

Страна: СССР
Производство: Ереванская киностудия
Жанр: приключения, семейный
Год выпуска: 18 марта 1954
Продолжительность: 01:06:24
Перевод: Не требуется
Cубтитры: нет
Оригинальная аудиодорожка: русский
Режиссер: Александр Роу, Яков Кочарян
В ролях:
Гурген Габриелян, Е. Арутюнян, Ванцетти Даниелян, Георгий Ашугян, Татул Дилакян, Арусь Асрян, Леонид Леонидов (III), Лилия Оганесян, Борис Керопян, Кнарик Сароян, Нелли Мелкумян, Виктория Терзибашян, Нерсик Оганесян, Ромик Погосян, Рубик Ханзадян, Владимир Феоктистов (II), Роберт Мкртчян, Альберт Акопян, Ваган Багратуни, Гарри Мушегян...
Полный список актёров
Описание:
По повести В. Ананяна «На берегу Севана».
Полям и садам большого селения, находящегося в горах Армении, не хватает воды. Согласно преданиям, в древние времена здесь протекала река, которую злое чудовище упрятало от непокорных людей. Однажды в селение приезжают геологи. Школьники Камо, Никита и Грикор решают помочь экспедиции и отправляются в поход. Пионеры находят в горах осколок старинной плиты и узнают, что река исчезла после землетрясения. Они отправляются в горы, чтобы сообщить геологам о важном открытии. Неожиданно начавшаяся гроза вынуждает ребят укрыться в пещере, выход из которой вскоре заваливает. Блуждая в таинственных подземных лабиринтах, ребята обнаруживают исчезнувшую реку.





Источник: DVD5 R5
Качество видео: DVDRip-AVC
Формат видео: MKV
Видео: 696->758x568 (4:3), 25 fps, H264 ~ 1437 kbps avg, 0.145 bit/pixel
Аудио: 48 kHz, MP3 2.0, 128 kbps
Раздача от:
Общее
Полное имя : Tayna.gornogo.ozera.1954.DVDRip-AVC_[New-team]_by_AVP_Studio.mkv
Формат : Matroska
Версия формата : Version 2
Размер файла : 744 Мбайт
Продолжительность : 1 ч. 6 м.
Общий поток : 1567 Кбит/сек
Дата кодирования : UTC 2016-04-08 11:15:57
Программа кодирования : mkvmerge v6.1.0 ('Old Devil') built on Mar 4 2013 09:10:42
Библиотека кодирования : libebml v1.3.0 + libmatroska v1.4.0
Видео
Идентификатор : 1
Формат : AVC
Формат/Информация : Advanced Video Codec
Профиль формата : High@L4.1
Параметр CABAC формата : Да
Параметр ReFrames формата : 10 кадров
Идентификатор кодека : V_MPEG4/ISO/AVC
Продолжительность : 1 ч. 6 м.
Битрейт : 1437 Кбит/сек
Ширина : 696 пикселей
Высота : 568 пикселей
Соотношение сторон : 4:3
Режим частоты кадров : Постоянный
Частота кадров : 25,000 кадров/сек
Цветовое пространство : YUV
Субдискретизация насыщенности : 4:2:0
Битовая глубина : 8 бит
Тип развёртки : Прогрессивная
Бит/(Пиксели*Кадры) : 0.145
Размер потока : 669 Мбайт (90%)
Библиотека кодирования : x264 core 148 r2597 e86f3a1
Настройки программы : cabac=1 / ref=10 / deblock=1:-2:-1 / analyse=0x3:0x113 / me=umh / subme=10 / psy=1 / psy_rd=1.00:0.00 / mixed_ref=1 / me_range=32 / chroma_me=1 / trellis=2 / 8x8dct=1 / cqm=0 / deadzone=21,11 / fast_pskip=1 / chroma_qp_offset=-2 / threads=6 / lookahead_threads=1 / sliced_threads=0 / nr=0 / decimate=0 / interlaced=0 / bluray_compat=0 / constrained_intra=0 / bframes=8 / b_pyramid=2 / b_adapt=2 / b_bias=0 / direct=3 / weightb=1 / open_gop=0 / weightp=2 / keyint=250 / keyint_min=25 / scenecut=40 / intra_refresh=0 / rc=2pass / mbtree=0 / bitrate=1437 / ratetol=1.0 / qcomp=0.60 / qpmin=0 / qpmax=69 / qpstep=4 / cplxblur=20.0 / qblur=0.5 / ip_ratio=1.40 / pb_ratio=1.30 / aq=1:1.00
Default : Да
Forced : Нет
Аудио
Идентификатор : 2
Формат : AC-3
Формат/Информация : Audio Coding 3
Расширение режима : CM (complete main)
Параметр Endianness формата : Big
Идентификатор кодека : A_AC3
Продолжительность : 1 ч. 6 м.
Вид битрейта : Постоянный
Битрейт : 128 Кбит/сек
Каналы : 2 канала
Расположение каналов : Front: L R
Частота : 48,0 КГц
Частота кадров : 31,250 кадров/сек (1536 spf)
Метод сжатия : С потерями
Размер потока : 60,8 Мбайт (8%)
Default : Да
Forced : Нет





   Похожие торренты   Торрент   Размер 
В этой теме нет новых непрочитанных сообщений. Тайна горного озера (1954) DVDRip от New-Team

9 | 4

743.64 МБ

В этой теме нет новых непрочитанных сообщений. Тайна горного озера (1954) DVDRip

41 | 8

1.2 ГБ

В этой теме нет новых непрочитанных сообщений. Тайна горного подземелья (1975) DVDRip

65 | 6

1.36 ГБ

В этой теме нет новых непрочитанных сообщений. Тайна Лебединого озера [01-06 из 06] (2002) DVDRip

4 | 5

4.1 ГБ

В этой теме нет новых непрочитанных сообщений. Секретные материалы. Тайна туманного озера. Коллекционное Издание / Strange Cases: The Secrets of Grey Mist Lake (2012) PC

396 | 3

477.97 МБ

В этой теме нет новых непрочитанных сообщений. Андриеш (1954) DVDRip от New-Team

3 | 0

744.13 МБ

В этой теме нет новых непрочитанных сообщений. Андриеш (1954) DVDRip-AVC от New-Team

5 | 0

744.17 МБ




Вы не можете начинать темы
Вы не можете отвечать на сообщения
Вы не можете редактировать свои сообщения
Вы не можете удалять свои сообщения
Вы не можете добавлять вложения

Перейти:  
Для Мосгорсуда, Роскомнадзора и рекламодателей: mosgorsud-torrent[собачка]yandex.ru
 Вход
ppkBB3cker v.2 © 2008-2014 @ PPK
[ Time : 0.064s | 16 Queries | GZIP : Off ]

cron