img image001 image001 image001 image001 image001 image001 image001 image001 image001 image001 image001 image001 image001 image001 image001

Planets Sun Sun Sun
Статистика раздачи
Автор: Nickolas3434 | Размер: 746.65 МБ | Добавлен: 12 апр 2016
Раздают: 941    Качают: 12
Скачать торрент
Скачать торрент
Описание торрента

СообщениеДобавлено: 12 апр 2016 


Информация о фильме
Оригинальное название: Как поднять миллион
Год выпуска: 2014
Жанр: Драма
Режиссер: Клим Шипенко
В ролях: Виктор Грудев, Дмитрий Калязин, Соня Карпунина, Анастасия Акатова, Николай Амосов, Александр Самойленко, Лидия Байрашевская, Михаил Бабичев, Любовь Толкалина, Михаил Довженко и др.
О фильме:
Женя живет в маленьком провинциальном городке. Он просиживает за компьютерами сутками, не отвлекаясь на еду и сон. Однажды Женя выясняет: на виртуальной реальности можно неплохо заработать. Начав с порносайтов, юноша вскоре получает свои первые деньги. Это в корне меняет его жизнь: больше он — не школьный изгой. Вчерашние недруги здороваются первыми, а самые красивые девочки ищут с ним встреч. Развивая свой бизнес, Женя в итоге оказывается перед выбором: принять законы коррумпированного мира и стать своим в далекой от идеала реальности, или пойти наперерез могущественным структурам, поставив под удар себя и своих близких?

Выпущено: Россия, Марс Медиа Энтертейнмент
Продолжительность: 01:29:23
Перевод: Не требуется
Субтитры: Отсутствуют
Файл
Качество: WEBRip
Видео: XviD, ~ 1030 Кбит/с, 688x288
Аудио: MP3, 2 ch, 128 Кбит/с
Полное имя : Ispoved.Z@drota.2014.XviD.WEBRip.by.GeneralFilm.avi
Формат : AVI
Формат/Информация : Audio Video Interleave
Размер файла : 747 Мбайт
Продолжительность : 1 ч. 29 м.
Общий поток : 1168 Кбит/сек
Программа кодирования : VirtualDubMod 1.5.10.3 | www.virtualdub-fr.org || (build 2550/release)
Библиотека кодирования : VirtualDubMod build 2550/release
Видео
Идентификатор : 0
Формат : MPEG-4 Visual
Профиль формата : Advanced Simple@L5
Параметр BVOP формата : 1
Параметр QPel формата : Нет
Параметр GMC формата : Без точки перехода
Параметр матрицы формата : Выборочная
Идентификатор кодека : XVID
Идентификатор кодека/Подсказка : XviD
Продолжительность : 1 ч. 29 м.
Битрейт : 1030 Кбит/сек
Ширина : 688 пикселей
Высота : 288 пикселей
Соотношение сторон : 2,40:1
Частота кадров : 25,000 кадров/сек
Цветовое пространство : YUV
Субдискретизация насыщенности : 4:2:0
Битовая глубина : 8 бит
Тип развёртки : Прогрессивная
Метод сжатия : С потерями
Бит/(Пиксели*Кадры) : 0.208
Размер потока : 659 Мбайт (88%)
Библиотека кодирования : XviD 73
Аудио
Идентификатор : 1
Формат : MPEG Audio
Версия формата : Version 1
Профиль формата : Layer 3
Идентификатор кодека : 55
Идентификатор кодека/Подсказка : MP3
Продолжительность : 1 ч. 29 м.
Вид битрейта : Постоянный
Битрейт : 128 Кбит/сек
Каналы : 2 канала
Частота : 48,0 КГц
Метод сжатия : С потерями
Размер потока : 81,8 Мбайт (11%)
Выравнивание : Соединение по промежуткам
Продолжительность промежутка : 40 мс. (1,00 видеокадр)
Время предзагрузки промежутка : 504 мс.
Библиотека кодирования : LAME3.99r
Настройки программы : -m s -V 4 -q 0 -lowpass 17 -b 128





Релиз от:
Исходник: WEBRip 720p



   Похожие торренты   Торрент   Размер 
В этой теме нет новых непрочитанных сообщений. Как поднять миллион. Исповедь Z@drota (2014) WEB-DLRip

2342 | 112

1.37 ГБ

В этой теме нет новых непрочитанных сообщений. Как поднять миллион. Исповедь Z@drota (2014) WEB-DL 720p

642 | 23

2.73 ГБ

В этой теме нет новых непрочитанных сообщений. Как поднять миллион. Исповедь Z@drota (2014) WEB-DLRip-AVC от New-Team

103 | 6

1.46 ГБ

В этой теме нет новых непрочитанных сообщений. Как поднять миллион. Исповедь Z@drota (2014) WEB-DLRip-AVC от ExKinoRay

170 | 9

1.4 ГБ

В этой теме нет новых непрочитанных сообщений. Как поднять миллион. Исповедь Z@drota (2014) WEB-DL 720p от ExKinoRay

157 | 5

1.72 ГБ

В этой теме нет новых непрочитанных сообщений. Как поднять миллион. Исповедь Z@drota (2014) WEB-DLRip-AVC от New-Team

320 | 10

745.88 МБ

В этой теме нет новых непрочитанных сообщений. Как поднять миллион. Исповедь Z@drota (2014) WEB-DL 1080p от ExKinoRay

547 | 15

2.62 ГБ




Вы не можете начинать темы
Вы не можете отвечать на сообщения
Вы не можете редактировать свои сообщения
Вы не можете удалять свои сообщения
Вы не можете добавлять вложения

Перейти:  
Для Мосгорсуда, Роскомнадзора и рекламодателей: mosgorsud-torrent[собачка]yandex.ru
 Вход
ppkBB3cker v.2 © 2008-2014 @ PPK
[ Time : 0.038s | 14 Queries | GZIP : Off ]

Торрент трекер RUTOR.IN, Не можете зайти на rutor.org? Какой новый адрес рутор? Какое зеркало рутор? Не работает rutor.org и зеркала? Тогда наш торрент специально для вас. Rutor.in неофициальное зеркало rutor. В случае если у Вас заблокирован rutor или вдруг Вы не можете на него зайти, то Вы без труда сможете скачать бесплатно и без рекламы последние новинки кино, игр, сериалов и прочего у нас, на Rutor.in. Не нужно использовать прокси, чтобы зайти на рутор, достаточно воспользоваться нашим ресурсом. Все новые фильмы, игры, сериалы, книги и музыка за 2013 и 2014 годы через торрент бесплатно. Скачивайте фильмы в хорошем качестве, игры для пк, xbox, playstation без регистрации. У нас вы найдете новые Зарубежные сериалы и Русские сериалы 2013, 2014, 2015 годов. Оставайтесь с нами, качайте любимые фильмы, игры, сериалы, книги и музыку.