img image001 image001 image001 image001 image001 image001 image001 image001 image001 image001 image001 image001 image001 image001 image001

Planets Sun Sun Sun
Статистика раздачи
Автор: Nickolas3434 | Размер: 745.53 МБ | Добавлен: 12 апр 2016
Раздают: 791    Качают: 19
Скачать торрент
Скачать торрент
Описание торрента

СообщениеДобавлено: 12 апр 2016 


Информация о фильме
Название: Регион 13
Год выхода: 2015
Жанр: боевик, криминал
Режиссер: Омар Сункар
В ролях: Омар Сункар, Мейрамхан Суннатиллаев, Гани Нуржигитов, Евгения Гуренкова, Арман Ельденбаев, Тахир Ишметов, Мансур Тулешев
О фильме: Известный в Южном Казахстане авторитет Багдат по кличке «Багда» получает от своего давнего друга информацию о готовившихся массовых беспорядках и насилию в регионе. Он, конечно же, не может остаться в стороне и пытается всеми способами предотвратить возможные события. Но он даже не подозревает, что за всем этим уже следят сотрудники спецслужб. Дальнейший ход событий заставляет Багду принять решения, от которых зависят судьбы многих и многих людей.
Выпущено: Казахстан / Tengri Studio, Orda Cinema Group
Продолжительность: 01:33:24
Перевод: Не требуется (русский)
Файл
Качество: WEBRip
Формат: AVI
Видео: 640x352 (1.82:1), 23.976 fps, XviD build 64 ~974 kbps avg, 0.18 bit/pixel
Звук: 48 kHz, MPEG Layer 3, 2 ch, ~128.00 kbps avg
Субтитры: нет

Общее
Полное имя : D:Регион 13 (2015) HDRip 745 mb.avi
Формат : AVI
Формат/Информация : Audio Video Interleave
Размер файла : 746 Мбайт
Продолжительность : 1 ч. 33 м.
Общий поток : 1116 Кбит/сек
Программа кодирования : Lavf54.63.104
Видео
Идентификатор : 0
Формат : xvid
Идентификатор кодека : xvid
Продолжительность : 1 ч. 33 м.
Битрейт : 975 Кбит/сек
Ширина : 640 пикселей
Высота : 352 пикселя
Соотношение сторон : 16:9
Частота кадров : 23,976 кадра/сек
Бит/(Пиксели*Кадры) : 0.181
Размер потока : 652 Мбайт (87%)
Аудио
Идентификатор : 1
Формат : MPEG Audio
Версия формата : Version 1
Профиль формата : Layer 3
Режим : Joint stereo
Расширение режима : MS Stereo
Идентификатор кодека : 55
Идентификатор кодека/Подсказка : MP3
Продолжительность : 1 ч. 33 м.
Вид битрейта : Постоянный
Битрейт : 128 Кбит/сек
Каналы : 2 канала
Частота : 48,0 КГц
Метод сжатия : С потерями
Размер потока : 85,5 Мбайт (11%)
Выравнивание : Соединение по промежуткам
Продолжительность промежутка : 24 мс. (0,58 видеокадр)
Библиотека кодирования : LAMEЄѕяююїпяяячЅЬэ



   Похожие торренты   Торрент   Размер 
В этой теме нет новых непрочитанных сообщений. Регион 13 (2015) HDRip

5095 | 91

1.36 ГБ

В этой теме нет новых непрочитанных сообщений. За рулем - Регион №9 (май-июнь) (2015) PDF

18 | 1

34.19 МБ

В этой теме нет новых непрочитанных сообщений. Регион Снега - Тысяча путей (2015) MP3

138 | 4

85.71 МБ

В этой теме нет новых непрочитанных сообщений. Сергей Левченко (ex пародист группы Красная Плесень) - 82-регион (2014-2015) MP3

492 | 19

167.29 МБ

В этой теме нет новых непрочитанных сообщений. За рулем - Регион №9 (2011) PDF

0 | 13

13.34 МБ

В этой теме нет новых непрочитанных сообщений. За рулем - Регион №15 (август) (2013) PDF

5 | 2

32.91 МБ

В этой теме нет новых непрочитанных сообщений. 63 Регион представляет... Muscle Style - Комплексы (2010) MP3

2 | 123

164.86 МБ




Вы не можете начинать темы
Вы не можете отвечать на сообщения
Вы не можете редактировать свои сообщения
Вы не можете удалять свои сообщения
Вы не можете добавлять вложения

Перейти:  
Для Мосгорсуда, Роскомнадзора и рекламодателей: mosgorsud-torrent[собачка]yandex.ru
 Вход
ppkBB3cker v.2 © 2008-2014 @ PPK
[ Time : 0.045s | 16 Queries | GZIP : Off ]

Торрент трекер RUTOR.IN, Не можете зайти на rutor.org? Какой новый адрес рутор? Какое зеркало рутор? Не работает rutor.org и зеркала? Тогда наш торрент специально для вас. Rutor.in неофициальное зеркало rutor. В случае если у Вас заблокирован rutor или вдруг Вы не можете на него зайти, то Вы без труда сможете скачать бесплатно и без рекламы последние новинки кино, игр, сериалов и прочего у нас, на Rutor.in. Не нужно использовать прокси, чтобы зайти на рутор, достаточно воспользоваться нашим ресурсом. Все новые фильмы, игры, сериалы, книги и музыка за 2013 и 2014 годы через торрент бесплатно. Скачивайте фильмы в хорошем качестве, игры для пк, xbox, playstation без регистрации. У нас вы найдете новые Зарубежные сериалы и Русские сериалы 2013, 2014, 2015 годов. Оставайтесь с нами, качайте любимые фильмы, игры, сериалы, книги и музыку.