img image001 image001 image001 image001 image001 image001 image001 image001 image001 image001 image001 image001 image001 image001 image001

Planets Sun Sun Sun
Статистика раздачи
Автор: Nickolas3434 | Размер: 744.37 МБ | Добавлен: 13 апр 2016
Раздают: 18    Качают: 5
Скачать торрент
Скачать торрент
Описание торрента

СообщениеДобавлено: 13 апр 2016 

Страна: СССР
Производство: Московская киностудия художественных фильмов им. М. Горького
Жанр: драма, спорт
Год выпуска: 1954
Продолжительность: 01:20:43
Перевод: Не требуется
Cубтитры: нет
Оригинальная аудиодорожка: русский
Режиссер: Владимир Гончуков
В ролях:
Алексей Ванин, Василий Меркурьев, Владимир Гуляев, Надежда Чередниченко, Клавдия Хабарова, Муза Крепкогорская, Ратмир Васютинский, Анатолий Васютинский, Анатолий Соловьёв, Николай Комиссаров, Борис Терентьев, Георгий Светлани, Галина Фролова...
Полный список актёров
Описание:
Илья Громов слывет среди односельчан знатным силачом. Под руководством опытного тренера простой деревенский парень становится чемпионом мира по классической борьбе.





Источник: DVB
Качество видео: SATRip
Формат видео: AVI
Видео: 640x480 (4:3), 25 fps, XviD ~ 1152 kbps avg, 0.150 bit/pixel
Аудио: 48 kHz, MP3 2.0, 128 kbps
Раздача от:
Общее
Полное имя : Chempion.mira.1954.SATRip-745_[New-team]_by_AVP_Studio.avi
Формат : AVI
Формат/Информация : Audio Video Interleave
Размер файла : 744 Мбайт
Продолжительность : 1 ч. 20 м.
Общий поток : 1289 Кбит/сек
Программа кодирования : VirtualDubMod 1.5.10.3 | www.virtualdub-fr.org || (build 2550/release)
Библиотека кодирования : VirtualDubMod build 2550/release
Видео
Идентификатор : 0
Формат : MPEG-4 Visual
Профиль формата : Advanced Simple@L5
Параметр BVOP формата : 1
Параметр QPel формата : Нет
Параметр GMC формата : Без точки перехода
Параметр матрицы формата : Выборочная
Идентификатор кодека : XVID
Идентификатор кодека/Подсказка : XviD
Продолжительность : 1 ч. 20 м.
Битрейт : 1152 Кбит/сек
Ширина : 640 пикселей
Высота : 480 пикселей
Соотношение сторон : 4:3
Частота кадров : 25,000 кадров/сек
Цветовое пространство : YUV
Субдискретизация насыщенности : 4:2:0
Битовая глубина : 8 бит
Тип развёртки : Прогрессивная
Метод сжатия : С потерями
Бит/(Пиксели*Кадры) : 0.150
Размер потока : 665 Мбайт (89%)
Библиотека кодирования : XviD 1.2.1 (UTC 2008-12-04)
Аудио
Идентификатор : 1
Формат : AC-3
Формат/Информация : Audio Coding 3
Расширение режима : CM (complete main)
Параметр Endianness формата : Big
Идентификатор кодека : 2000
Продолжительность : 1 ч. 20 м.
Вид битрейта : Постоянный
Битрейт : 128 Кбит/сек
Каналы : 2 канала
Расположение каналов : Front: L R
Частота : 48,0 КГц
Частота кадров : 31,250 кадров/сек (1536 spf)
Метод сжатия : С потерями
Размер потока : 73,9 Мбайт (10%)
Выравнивание : Разделение по промежуткам
Продолжительность промежутка : 40 мс. (1,00 видеокадр)
Время предзагрузки промежутка : 500 мс





   Похожие торренты   Торрент   Размер 
В этой теме нет новых непрочитанных сообщений. Чемпион мира (1954) SATRip от New-Team

10 | 1

1.09 ГБ

В этой теме нет новых непрочитанных сообщений. Чемпион мира (1954) SATRip-AVC от New-Team

1 | 3

1.09 ГБ

В этой теме нет новых непрочитанных сообщений. Два друга (1954) SATRip-AVC от New-Team

19 | 3

1.09 ГБ

В этой теме нет новых непрочитанных сообщений. Два друга (1954) SATRip от New-Team

44 | 6

1.09 ГБ

В этой теме нет новых непрочитанных сообщений. Два друга (1954) SATRip от New-Team

10 | 11

745.75 МБ

В этой теме нет новых непрочитанных сообщений. Стрекоза (1954) SATRip от New-Team

4 | 2

1.09 ГБ

В этой теме нет новых непрочитанных сообщений. Стрекоза (1954) SATRip от New-Team

2 | 0

744.79 МБ




Вы не можете начинать темы
Вы не можете отвечать на сообщения
Вы не можете редактировать свои сообщения
Вы не можете удалять свои сообщения
Вы не можете добавлять вложения

Перейти:  
Для Мосгорсуда, Роскомнадзора и рекламодателей: mosgorsud-torrent[собачка]yandex.ru
 Вход
ppkBB3cker v.2 © 2008-2014 @ PPK
[ Time : 0.048s | 16 Queries | GZIP : Off ]

cron